动漫∨

クリスティーナ

见习天使
UID:1683100
精华:0
主题:0
帖子:29
威望:6
天使币:23
宣传度:0
天然°:0
腹黑°:0
精灵:0
旺财币:0
阅读权限:10
注册时间:2017-10-11
状态: 不在线

  • TA的每日心情
    开心

    签到天数: 2天[LV.1]初来乍到

  • クリスティーナ 发表于 2017-10-18 11:44:27 来自手机 |显示全部楼层
    图怎么炸了。。。

    使用道具 举报

    FenderJPMG70SMt

    LEVEL 2 升华
    UID:1634711
    精华:0
    主题:0
    帖子:311
    威望:532
    天使币:516
    宣传度:1
    天然°:0
    腹黑°:0
    精灵:0
    旺财币:0
    阅读权限:20
    注册时间:2017-4-5
    状态: 不在线

  • TA的每日心情
    无聊

    签到天数: 157天[LV.8]以坛为家I

  • FenderJPMG70SMt 发表于 2017-10-22 22:58:38 |显示全部楼层
    收藏一下

    使用道具 举报

    QQ1780

    LEVEL 1 断罪
    UID:1170297
    精华:0
    主题:4
    帖子:115
    威望:251
    天使币:1530
    宣传度:40
    天然°:46
    腹黑°:45
    精灵:2
    旺财币:0
    阅读权限:15
    注册时间:2015-1-16
    状态: 不在线

  • TA的每日心情
    无聊

    签到天数: 70天[LV.6]常住居民II

  • QQ1780 发表于 2017-11-21 22:48:07 |显示全部楼层
    升级
    ASUS - SBW-06D2X-U        [Purged]
    这个偏移怎么填

    使用道具 举报

    binggan39
    binggan39

    见习天使
    UID:1692700
    精华:0
    主题:1
    帖子:5
    威望:16
    天使币:18
    宣传度:0
    天然°:0
    腹黑°:0
    精灵:0
    旺财币:0
    阅读权限:10
    注册时间:2017-11-27
    状态: 不在线

  • TA的每日心情
    开心

    签到天数: 1天[LV.1]初来乍到

  • binggan39 发表于 2017-11-28 00:57:28 |显示全部楼层
    本帖最后由 binggan39 于 2017-11-28 00:59 编辑

    谢谢分享,要研究一下.

    使用道具 举报

    binggan39
    binggan39

    见习天使
    UID:1692700
    精华:0
    主题:1
    帖子:5
    威望:16
    天使币:18
    宣传度:0
    天然°:0
    腹黑°:0
    精灵:0
    旺财币:0
    阅读权限:10
    注册时间:2017-11-27
    状态: 不在线

  • TA的每日心情
    开心

    签到天数: 1天[LV.1]初来乍到

  • binggan39 发表于 2017-11-28 00:58:25 |显示全部楼层
    tonk
    第一次用Exact Audio Copy做无损整轨加CUE,请大神帮我看看以下报告有没有问题?




    Exact Audio Copy V1.3 from 2. September 2016


    EAC extraction logfile from 27. November 2017, 4:43


    王闻 / 给朋友


    Used drive : PIONEER DVD-RW DVR-219L Adapter: 1 ID: 0


    Read mode : Secure
    Utilize accurate stream : Yes
    Defeat audio cache : Yes
    Make use of C2 pointers : No


    Read offset correction : 6
    Overread into Lead-In and Lead-Out : No
    Fill up missing offset samples with silence : Yes
    Delete leading and trailing silent blocks : No
    Null samples used in CRC calculations : Yes
    Used interface : Native Win32 interface for Win NT & 2000


    Used output format : Internal WAV Routines
    Sample format : 44.100 Hz; 16 Bit; Stereo




    TOC of the extracted CD


    Track | Start | Length | Start sector | End sector
    ---------------------------------------------------------
    1 | 0:00.00 | 4:02.26 | 0 | 18175
    2 | 4:02.26 | 5:24.08 | 18176 | 42483
    3 | 9:26.34 | 4:51.44 | 42484 | 64352
    4 | 14:18.03 | 3:47.14 | 64353 | 81391
    5 | 18:05.17 | 5:21.47 | 81392 | 105513
    6 | 23:26.64 | 2:41.73 | 105514 | 117661
    7 | 26:08.62 | 4:32.38 | 117662 | 138099
    8 | 30:41.25 | 4:55.36 | 138100 | 160260
    9 | 35:36.61 | 5:05.60 | 160261 | 183195
    10 | 40:42.46 | 4:19.31 | 183196 | 202651
    11 | 45:02.02 | 3:58.01 | 202652 | 220502
    12 | 49:00.03 | 3:52.05 | 220503 | 237907
    13 | 52:52.08 | 3:23.70 | 237908 | 253202




    Range status and errors


    Selected range


    Filename G:\王闻 - 给朋友 [签名版CD 整轨WAV+CUE]\王闻 - 给朋友.wav


    Peak level 100.0 %
    Extraction speed 3.1 X
    Range quality 100.0 %
    Copy CRC 3B31ECDB
    Copy OK


    No errors occurred


    End of status report


    ---- CUETools DB Plugin V2.1.6


    [CTDB TOCID: 23dxcaSLISKtVPpNEwsSHNJPjb4-] found
    Submit result: 23dxcaSLISKtVPpNEwsSHNJPjb4- has been confirmed
    Track | CTDB Status
    1 | (40/42) Accurately ripped
    2 | (40/42) Accurately ripped
    3 | (40/42) Accurately ripped
    4 | (40/42) Accurately ripped
    5 | (40/42) Accurately ripped
    6 | (40/42) Accurately ripped
    7 | (40/42) Accurately ripped
    8 | (40/42) Accurately ripped
    9 | (40/42) Accurately ripped
    10 | (41/42) Accurately ripped
    11 | (38/42) Accurately ripped, or (2/42) differs in 27048 samples @01:32:24-01:32:47
    12 | (40/42) Accurately ripped
    13 | (40/42) Accurately ripped




    ==== Log checksum 8F679AEC31153A08895F0F09543A251AA8A593B59A35FE36EEFB92FEE7CB0DF9 ====




    这句是什么意思?有问题? (11 | (38/42) Accurately ripped, or (2/42) differs in 27048 samples @01:32:24-01:32:47)

    使用道具 举报

    tonk

    雨泽天使
    UID:640508
    精华:3
    主题:814
    帖子:2450
    威望:64387
    天使币:1077544
    宣传度:27017
    天然°:15905
    腹黑°:15573
    精灵:1066
    旺财币:0
    阅读权限:150
    注册时间:2013-3-29
    来自:苏州
    状态: 在线

  • TA的每日心情
    开心

    签到天数: 1238天[LV.Master]伴坛终老

  • tonk 发表于 2017-11-28 01:19:05 来自手机 |显示全部楼层
    binggan39 发表于 2017-11-28 00:58
    tonk
    第一次用Exact Audio Copy做无损整轨加CUE,请大神帮我看看以下报告有没有问题?


    没有出错,只要报告No errors occurred就是没问题。

    使用道具 举报

    binggan39
    binggan39

    见习天使
    UID:1692700
    精华:0
    主题:1
    帖子:5
    威望:16
    天使币:18
    宣传度:0
    天然°:0
    腹黑°:0
    精灵:0
    旺财币:0
    阅读权限:10
    注册时间:2017-11-27
    状态: 不在线

  • TA的每日心情
    开心

    签到天数: 1天[LV.1]初来乍到

  • binggan39 发表于 2017-11-28 01:44:45 |显示全部楼层
    tonk 发表于 2017-11-28 01:19
    没有出错,只要报告No errors occurred就是没问题。

    明白,谢谢大神!

    使用道具 举报

    Sasasu
    NutKinght

    LEVEL 1 断罪
    UID:1693028
    精华:0
    主题:2
    帖子:107
    威望:557
    天使币:544
    宣传度:2
    天然°:44
    腹黑°:38
    精灵:0
    旺财币:0
    阅读权限:20
    注册时间:2017-11-28
    来自:黑蜥蜴星
    状态: 不在线

  • TA的每日心情
    开心

    签到天数: 32天[LV.5]常住居民I

  • Sasasu 发表于 2017-11-28 20:50:08 |显示全部楼层
    本帖最后由 Sasasu 于 2017-11-28 21:01 编辑

    好多 16 bit 的...

    24 bit 的需要捐助是吧

    使用道具 举报

    taiho303
    小朋友

    LEVEL 1 断罪
    UID:813889
    精华:0
    主题:1
    帖子:124
    威望:82
    天使币:298
    宣传度:0
    天然°:0
    腹黑°:0
    精灵:0
    旺财币:0
    阅读权限:10
    注册时间:2013-9-28
    来自:香港
    状态: 不在线

  • TA的每日心情
    奋斗

    签到天数: 52天[LV.5]常住居民I

  • taiho303 发表于 2017-12-7 00:15:43 |显示全部楼层

    收藏一下

    使用道具 举报

    GenjiNeedsHeal
    GenjiNeedsHeal

    见习天使
    UID:1691840
    精华:0
    主题:1
    帖子:29
    威望:17
    天使币:-8
    宣传度:0
    天然°:0
    腹黑°:0
    精灵:0
    旺财币:0
    阅读权限:10
    注册时间:2017-11-21
    状态: 不在线

    该用户从未签到

    GenjiNeedsHeal 发表于 2018-1-12 08:25:20 |显示全部楼层
    但是这个社区正在使用外国用户,请将日志上传到英文。

    使用道具 举报

    您需要登录后才可以回帖 登录 | 注册

    加天使同城QQ群,有威望奖励~

    Archiver|WAP| 天使动漫论坛   

    声明:本站所有内容资源均来自网络&网友分享,仅供学习试用。如侵犯您的权益请告知,将会第一时间删除。广告联系我的邮箱

    GMT+8, 2018-6-23 22:13 , Processed in 0.190808 second(s), 51 queries , Gzip On, Memcache On.

    Powered by Discuz! TSDM SP

    © 2010-2014 Style by chibimiku@TSDM

    回顶部