快捷导航

查看: 439|回复: 2

[动漫音乐] [自购自抓][EAC][2017.12.20] TVアニメ「ラブライブ! サンシャイン!!」2期 挿入歌シングル2「Awaken the power」/Saint Aqours Snow [WAV+CUE][485M] [复制链接]

殤逝流年
殇逝流年

LEVEL 1 断罪
UID:1644673
精华:0
主题:14
帖子:153
威望:684
天使币:2525
宣传度:80
天然°:275
腹黑°:275
精灵:4
阅读权限:25
注册时间:2017-5-14
来自:广东
状态: 不在线

  • TA的每日心情
    开心

    签到天数: 79天[LV.6]常住居民II

  • 殤逝流年 发表于 2018-1-13 20:46:47 |显示全部楼层
    散漫舍


    登録情報
    CD (2017/12/20)
    ディスク枚数: 1
    レーベル: ランティス

    曲目リスト
    1.Awaken the power
    歌:Saint Aqours Snow
    作曲・編曲:河田貴央
    テレビアニメ『ラブライブ!サンシャイン!!』第2期第9話挿入歌
    2.CRASH MIND
    歌:Saint Snow
    作曲・編曲:宮崎誠
    テレビアニメ『ラブライブ!サンシャイン!!』第2期第5話挿入歌
    3.DROPOUT!?
    歌:Saint Snow
    作曲・編曲:馬渕直純
    テレビアニメ『ラブライブ!サンシャイン!!』第2期第8話挿入歌
    4.Awaken the power (Off Vocal)
    5.聖良と理亞をおもてなせ!
    6.聖良と理亞を波打ちぎわで!
    7.聖良と理亞を沼津の味で!

    アーティスト
    [Aqours]
    高海千歌 : 伊波杏樹
    桜内梨子 : 逢田梨香子
    松浦果南 : 諏訪ななか
    黒澤ダイヤ : 小宮有紗
    渡辺曜 : 斉藤朱夏
    津島善子 : 小林愛香
    国木田花丸 : 高槻かなこ
    小原鞠莉 : 鈴木愛奈
    黒澤ルビィ : 降幡愛
    [Saint Snow]
    鹿角聖良 :田野アサミ
    鹿角理亞 :佐藤日向

    Exact Audio Copy V1.3 from 2. September 2016

    EAC extraction logfile from 13. January 2018, 19:53

    Saint Aqours Snow / Awaken the power

    Used drive  : HL-DT-STBDDVDRW UH12LS28   Adapter: 1  ID: 0

    Read mode               : Secure
    Utilize accurate stream : Yes
    Defeat audio cache      : Yes
    Make use of C2 pointers : No

    Read offset correction                      : 667
    Overread into Lead-In and Lead-Out          : No
    Fill up missing offset samples with silence : Yes
    Delete leading and trailing silent blocks   : No
    Null samples used in CRC calculations       : Yes
    Used interface                              : Native Win32 interface for Win NT & 2000

    Used output format : Internal WAV Routines
    Sample format      : 44.100 Hz; 16 Bit; Stereo


    TOC of the extracted CD

         Track |   Start  |  Length  | Start sector | End sector
        ---------------------------------------------------------
            1  |  0:00.00 |  4:56.59 |         0    |    22258   
            2  |  4:56.59 |  4:19.61 |     22259    |    41744   
            3  |  9:16.45 |  3:56.64 |     41745    |    59508   
            4  | 13:13.34 |  4:55.22 |     59509    |    81655   
            5  | 18:08.56 |  9:56.67 |     81656    |   126422   
            6  | 28:05.48 |  8:23.50 |    126423    |   164197   
            7  | 36:29.23 | 11:24.53 |    164198    |   215550   


    Range status and errors

    Selected range

         Filename C:\Users\Administrator\Desktop\Saint Aqours Snow - Awaken the power.wav

         Peak level 96.6 %
         Extraction speed 7.3 X
         Range quality 100.0 %
         Copy CRC 4686EA07
         Copy OK

    No errors occurred


    AccurateRip summary

    Track  1  accurately ripped (confidence 3)  [C577EE55]  (AR v2)
    Track  2  accurately ripped (confidence 3)  [A04DECE2]  (AR v2)
    Track  3  accurately ripped (confidence 3)  [4325F096]  (AR v2)
    Track  4  accurately ripped (confidence 3)  [6D86C04B]  (AR v2)
    Track  5  accurately ripped (confidence 2)  [06402DD9]  (AR v2)
    Track  6  accurately ripped (confidence 2)  [34168A12]  (AR v2)
    Track  7  accurately ripped (confidence 2)  [5638F4DE]  (AR v2)

    All tracks accurately ripped

    End of status report

    ---- CUETools DB Plugin V2.1.6

    [CTDB TOCID: 1Qr6H.EAdlVwtFUgtDFAwTs8QZU-] found
    Submit result: 1Qr6H.EAdlVwtFUgtDFAwTs8QZU- has been confirmed
    Track | CTDB Status
      1   | (254/254) Accurately ripped
      2   | (254/254) Accurately ripped
      3   | (254/254) Accurately ripped
      4   | (254/254) Accurately ripped
      5   | (254/254) Accurately ripped
      6   | (254/254) Accurately ripped
      7   | (252/254) Accurately ripped


    ==== Log checksum C580D2AA4C25212CE333626D1C2EB96701BB6824D42CA0CD74BFD55AC9043A5A ====


    链接:https://pan.baidu.com/s/1oAfy0mI

    [2017.10.25] TVアニメ「ラブライブ! サンシャイン!!」2期 OPテーマ「未来の僕らは知ってるよ」/Aqours [WAC+CUE][193M]:
    http://www.tsdm.me/forum.php?mod=viewthread&tid=861664
    [2017.11.15] TVアニメ「ラブライブ! サンシャイン!!」2期 EDテーマ「勇気はどこに?君の胸に!」/Aqours [WAC+CUE][175M]:
    http://www.tsdm.me/forum.php?mod=viewthread&tid=861671
    [2017.11.29] TVアニメ「ラブライブ! サンシャイン!!」2期 挿入歌シングル1「MY舞☆TONIGHT/MIRACLE WAVE」/Aqours [WAV+CUE][175M]:
    http://www.tsdm.me/forum.php?mod=viewthread&tid=862667

    橙色奇迹
    高海千曜

    见习天使
    UID:1461739
    头衔:小守护进程
    精华:0
    主题:0
    帖子:33
    威望:20
    天使币:56
    宣传度:0
    天然°:0
    腹黑°:0
    精灵:0
    阅读权限:10
    注册时间:2016-2-29
    来自:银河系
    状态: 不在线

  • TA的每日心情
    难过

    签到天数: 13天[LV.3]偶尔看看II

  • 橙色奇迹 发表于 5 天前 |显示全部楼层
    感谢分享!

    使用道具 举报

    殤逝流年
    殇逝流年

    LEVEL 1 断罪
    UID:1644673
    精华:0
    主题:14
    帖子:153
    威望:684
    天使币:2525
    宣传度:80
    天然°:275
    腹黑°:275
    精灵:4
    阅读权限:25
    注册时间:2017-5-14
    来自:广东
    状态: 不在线

  • TA的每日心情
    开心

    签到天数: 79天[LV.6]常住居民II

  • 殤逝流年 发表于 昨天 12:25 |显示全部楼层
    升级
    橙色奇迹 发表于 2018-1-16 22:11
    感谢分享!

    这头像 我怀疑你是...(不用怀疑了,直接打死!)

    使用道具 举报

    您需要登录后才可以回帖 登录 | 注册

    加天使同城QQ群,有威望奖励~

    回顶部