快捷导航

查看: 51|回复: 16

[游戏音乐] [BD][自购/低速流自抓] [EAC][131113]CDGM-10016 Arcade Disc In JALECO -VARIETY-(wav+cue+log+jpg)(2.12 GB) [复制链接]

buiy
8f

LEVEL 3 POWER
UID:779565
精华:0
主题:88
帖子:1422
威望:3644
天使币:1743
宣传度:349
天然°:345
腹黑°:338
精灵:24
旺财币:0
阅读权限:50
注册时间:2013-8-15
来自:2.5次元
状态: 不在线

  • TA的每日心情
    开心

    签到天数: 623天[LV.Master]伴坛终老

  • buiy 发表于 2018-2-14 12:25:07 |显示全部楼层


    Catalog Number        CDGM-10016
    Release Date        Nov 13, 2013
    Publish Format        Commercial
    Release Price        4725 JPY
    Media Format        4 CD
    Classification        Original Soundtrack, Arrangement, Prototype/Unused
    Published by        City Connection (distributed by Clarice Disc)
    Composed by        Tsukasa Tawada, Kiyoshi Yokoyama, Yasuhiko Takashiba, STUDIO O.K., Yasuyuki Suzuki, Atsuyoshi Isemura, 大河雄一郎, GOD CHILD
    Arranged by        Masaki Kase


    Tracklist
    Disc 1

    01        プレイBGM        2:40
    02        プレイBGM        2:33
    03        SUNSET SEASIDE (TEAM SELECT)        1:56
    04        OPENING        0:09
    05        GOAL IN !        0:08
    06        CHAM'S FANFARE (CLEAR)        0:17
    07        CONGRATULATION(CONTINUE)        1:44
    08        HUMAN DANCE (BREAK BGM) -UNUSED-        2:22
    09        CREDIT        0:06
    10        MAP        0:08
    11        ROUND 1        1:11
    12        GET WEAPON        0:36
    13        ROUND CLEAR        0:07
    14        ROUND 2        1:03
    15        ROUND 2 BOSS        0:26
    16        ROUND 3        1:03
    17        ROUND 3 BOSS        0:33
    18        ROUND 4        1:08
    19        ROUND 4 BOSS        0:54
    20        ROUND 5        1:06
    21        ROUND 6        2:06
    22        ROUND 6 BOSS        1:00
    23        LAST BOSS        0:59
    24        ALL CLEAR        0:56
    25        ENDING        0:39
    26        GAME OVER ~ NAME ENTRY        0:58
    27        TITLE -破兆- (CREDIT)        0:08
    28        ATTRACT DEMO        0:26
    29        STAGE 1 SKY -風雲の巻-        2:59
    30        STAGE 2 CLIFFSIDE -妖岩の巻-        1:16
    31        STAGE 3 DESCENDING -邪落の巻-        1:29
    32        STAGE 4 CAVE -地龍の巻-        1:53
    33        STAGE 5 ASCENDING -天龍の巻-        2:28
    34        STAGE 6 TEMPLE -封印の巻-        2:17
    35        ENDING        1:05
    36        GAME OVER        0:07
    37        未使用曲1        2:41
    38        未使用曲2        0:25
    39        CREDIT ~ START        0:07
    40        STAGE 1 - IN THE FOREST        2:42
    41        STAGE 1 - BOSS        1:37
    42        STAGE CLEAR        0:27
    43        STAGE 2 - IN THE CAVE        1:54
    44        STAGE 2 - BOSS        2:29
    45        STAGE 3 - ON THE LAKE        2:34
    46        STAGE 3 - BOSS        2:26
    47        STAGE 4 - ON THE LIFT        5:47
    48        STAGE 5 - IN THE CASTLE        1:56
    49        STAGE 5 - BOSS        1:20
    50        LAST STAGE        2:04
    51        LAST BOSS        1:41
    52        ENDING        2:02
    53        NAME ENTRY        1:58
    54        CONTINUE        0:53
    55        GAME OVER        0:06
    56        UNUSED1        0:07
    57        UNUSED2        0:06
    Disc length 76:18
    Disc 2

    01        CREDIT        0:06
    02        ENTRY        0:48
    03        STAGE 1        2:02
    04        STAGE CLEAR        0:33
    05        STAGE 2        1:32
    06        STAGE 3        2:33
    07        STAGE 4        1:23
    08        STAGE 5        1:56
    09        STAGE 6        2:01
    10        VICTORY RUN        0:34
    11        CONGRATULATIONS        0:12
    12        NAME ENTRY        1:10
    13        SOUND TEST        0:08
    14        CREDIT        0:06
    15        ENTRY        1:00
    16        STAGE 1 CLEAR        0:40
    17        STAGE 2 CLEAR        0:37
    18        STAGE 3 CLEAR        0:28
    19        STAGE 4 CLEAR        0:36
    20        STAGE 5 CLEAR        0:09
    21        GOAL        1:46
    22        ENDING        0:58
    23        NAME ENTRY        0:41
    24        UNUSED 1        0:40
    25        UNUSED 2        0:32
    26        SOUND TEST        0:09
    27        デモ        0:19
    28        コイン        0:06
    29        一話 オープニング1        0:12
    30        一話 オープニング2        0:08
    31        森のシーン「森に朝がやってきた」        1:16
    32        一話 第一曲「陽気に歌おう」        1:18
    33        一話 途中演出1        0:14
    34        一話 第二曲「鳥たちの二重唱」        1:15
    35        エクストラゲーム        0:34
    36        勇気をもらったとき        0:26
    37        一話 第三曲「かえでの葉のうえで踊ろうよ」        1:12
    38        一話 途中演出2        0:12
    39        ボスのテーマ1        2:00
    40        一話 エンディング        0:52
    41        二話 第一曲「南風のみたもの」        0:46
    42        二話 途中演出(未使用曲)        0:53
    43        二話 第二曲「ありんこワルツ」        1:02
    44        二話 途中演出        0:36
    45        二話 第三曲「行進曲」        2:05
    46        ボスのテーマ2        1:22
    47        二話 エンディング        0:28
    48        ボスのテーマ3        1:43
    49        スタッフロール「平和へのハーモニカ」        2:09
    50        勇気を失ったとき(未使用曲)        0:06
    51        コンティニュー        0:34
    52        ゲームオーバー        0:09
    53        ネームエントリー「笛吹きじいさんの思い出」        0:59
    54        クレジット        0:06
    55        ステージスタート        0:11
    56        一戦目 諏訪氏攻撃 諏訪頼重 / 四戦目 川中島の戦い 上杉謙信        2:18
    57        ボーナススタート        0:08
    58        ボーナスステージ        0:39
    59        武将        2:32
    60        武将討伐        0:08
    61        二戦目 塩尻峠の戦い 小笠原長時        3:06
    62        三戦目 戸石崩れ 村上義清        1:14
    63        エンディング        0:28
    64        ゲームオーバー        0:09
    65        未使用曲        0:09
    66        Case of the Rich Man's Kidnapped Daughter (Opening Demo)        0:41
    67        Credit        0:06
    68        Player Select        0:52
    69        64th Street (Stage 1)        2:19
    70        Eye Catch        0:06
    71        Boss        0:59
    72        Probe Next Hideout (Stage Clear)        0:08
    73        Smuggler's Wharf (Stage 2)        1:34
    74        Railroad Yard Part 1 (Stage 3)        1:29
    75        Railroad Yard Part 2 (Stage 3)        0:38
    76        Secret Factory (Stage 4)        2:00
    77        The Headquarters (Stage 5)        1:54
    78        Chase and Arrest (Insert Cut)        0:06
    79        Last Level (Stage 6)        2:54
    80        Ending        1:44
    81        Name Entry        1:22
    82        Unused 1 (continue)        0:11
    83        Unused 2(stage start)        0:06
    Disc length 76:33
    Disc 3

    01        CREDIT        0:06
    02        MAIN BGM        2:21
    03        BOSS BGM        1:17
    04        STAGE CLEAR        0:06
    05        KICHI        2:19
    06        TRICK ROOM        0:59
    07        GESUIDOU        1:43
    08        WARNING        0:45
    09        KANOJYO        1:00
    10        LAST BOSS BGM        2:06
    11        ENDING        1:13
    12        NAME REGIST        1:27
    13        CONTINUE        0:19
    14        CREDIT        0:06
    15        TEAM SELECT        1:20
    16        JAP WIN        0:24
    17        USA WIN        0:53
    18        GBR WIN        0:27
    19        GER WIN        0:37
    20        ITA WIN        0:35
    21        ESP WIN        0:36
    22        BRA WIN        0:35
    23        ARG WIN        0:20
    24        GOAL !        0:10
    25        ENDING        0:53
    26        NAME ENTRY        1:16
    27        タイトル        0:59
    28        クレジット        0:06
    29        モード選択        0:49
    30        選択画面ファンファーレ (モード決定)        0:06
    31        妖精の森に朝が来た (ソルダムモード 1)        1:26
    32        ‘迷い実’を探せ! (ソルダムモード 2)        1:18
    33        木の下でおおあわて (ソルダムモード 3)        1:12
    34        VSモード        2:04
    35        勝利のファンファーレ (VSモード終了)        0:10
    36        セキーロのテーマ (セキーロモード 1)        2:07
    37        夕暮れの森 (セキーロモード 2)        1:45
    38        春を待つ妖精たち (セキーロモード 3)        1:40
    39        木々のざわめき (セキーロモード 4)        2:55
    40        エキストラファンファーレ (セキーロモード EXTRA FANFARE)        0:06
    41        エキストラ「妖精のサンバ」        0:55
    42        ボスがやってきた (セキーロモード BOSS登場)        0:32
    43        ボスのテーマ (セキーロモード BOSS)        2:23
    44        エンディング (セキーロモード ENDING)        2:57
    45        コンティニュー        0:29
    46        ゲームオーバー        0:10
    47        結果BGM (セキーロモード終了結果)        0:30
    48        ネームエントリー        1:16
    49        未使用曲1        0:35
    50        未使用曲2        0:06
    51        TITLE        0:24
    52        CREDIT        0:06
    53        PLAYER SELECT        0:29
    54        START in ASIA        0:27
    55        VS        0:06
    56        DOWN        0:06
    57        TKO / CONTINUE        0:28
    58        WIN        0:06
    59        START in EUROPE        0:24
    60        START in U.S.A        0:28
    61        TITLE MACH        1:17
    62        CHAMPION        0:08
    63        DRAW        0:06
    64        LOSE        0:07
    65        GAME OVER        0:06
    66        NAME ENTRY        0:44
    67        UNUSED (DEMO)        1:06
    68        VOICE        1:51
    Disc length 58:58
    Disc 4

    01        クレジット        0:06
    02        キャラクタ-セレクト        0:54
    03        対局テ-マ (VS 槙枝 早苗,一文字つかさ,佐々木 留美,篠原ありす)        1:34
    04        パネルマッチ        1:37
    05        脱衣シ-ン        2:08
    06        変身シ-ン        0:17
    07        ボス戦 (VS 片桐 志穂,セシル・デリンジャー)        1:41
    08        コンティニュー        1:18
    09        真のボス戦 (VS 大天使セシエル)        2:06
    10        エンディング        2:20
    11        スタッフロール        2:41
    12        未使用曲1        2:29
    13        未使用曲2        1:41
    14        オープニング1/トゥルーエンド/コンティニュー  (VSキララ時)        0:27
    15        オープニング2 ~ タイトル/ターゲットセレクト/スタッフロール        0:38
    16        クレジット        0:06
    17        望月ゆかり 対局テーマ  (アルルの女 第二組曲より「メヌエット」)        3:11
    18        相原 操 対局テーマ        1:09
    19        川奈 絵理 対局テーマ        1:51
    20        トレヴィー 対局テーマ1        1:00
    21        トレヴィー 対局テーマ2        2:40
    22        和了/満貫/跳満        0:06
    23        クイズパネルショック/コンティニュー        1:39
    24        クイズパネルショック タイムアップ        0:06
    25        アイテムゲット/倍満/三倍満        0:07
    26        パネルクリアー/役満        0:09
    27        望月ゆかり,川奈 絵理 脱衣シーン        0:42
    28        相原 操,トレヴィー 脱衣シーン (相原操選択時エンディング)        0:33
    29        キララ 対局テーマ&脱衣シーン        1:43
    30        川奈絵里選択時エンディング        0:31
    31        望月ゆかり選択時エンディング        0:31
    32        ゲームオーバー        0:06
    33        未使用曲        0:24
    34        クレジット        0:06
    35        メンバーセレクト/エンディング/スタッフロール        0:43
    36        VS画面        0:09
    37        一回戦 対局テーマ        1:45
    38        脱衣シーン1 (倍賞 沙那子,護国寺 玲子,城ノ内 環,リサ・ホワイト)        0:16
    39        二回戦 対局テーマ/脱衣シーン2 (岩崎 薫子)        1:53
    40        脱衣シーン3 (千歳 奈々美,衛藤 ひなこ,樋口 絢)        0:16
    41        三回戦 対局テーマ        2:05
    42        CPU和了        0:06
    43        脱衣シーン4 (鮎川 螢,堂本 真紀,深町 蘭,香月まゆ,水奈瀬 愛生)/コンティニュー        0:32
    44        準決勝 対局テーマ/脱衣シーン5 (能登 妙子)        1:10
    45        脱衣シーン6 (千歳 奈々美)        0:10
    46        決勝戦 対局テーマ        1:47
    47        キララ☆スター 対局テーマ (『流星雀士キララ☆スター』より)        1:40
    48        キララ☆スター 脱衣シーン (『流星雀士キララ☆スター』より)        0:07
    49        龍 麗花 対局テーマ (最終決戦)        1:11
    50        龍 麗花 脱衣シーン        0:21
    51        プレイヤー和了/ゲームオーバー  (オールクリア時)        0:10
    52        64th Street (Stage 1) DEMO        0:48
    53        Boss DEMO        0:36
    54        Ending DEMO        1:44
    55        Name Entry DEMO        1:16
    56        MAIN BGM DEMO        2:52
    57        KICHI DEMO        2:27
    58        GESUIDOU DEMO        2:02
    59        BOSS BGM DEMO        1:27
    60        LAST BOSS BGM DEMO        2:04
    61        STAGE CLEAR DEMO        0:07
    62        TRICK ROOM DEMO        0:52
    63        ENDING DEMO        1:14
    64        NAME REGIST DEMO        1:31
    65        7th Underground        5:48
    Disc length 77:46

    LOG:
    Disc 1
    Exact Audio Copy V0.99 prebeta 5 from 4. May 2009

    EAC 抓取日志文件从6. 二月 2018, 16:39

    未知艺术家 / 未知标题

    使用驱动器  :ASUS    DRW-2014L1T   Adapter: 3  ID: 0

    读取模式     : 保护
    使用精确流   : 是
    废除音频缓冲 : 是
    使用 C2 指针 : 否

    读取偏移校正                   : 6
    读取 Lead-In 和 Lead-Out       : 否
    用静音填充抓取中丢失偏移的采样 : 是
    去除首尾静音块                 : 否
    在 CRC 计算中使用了空样本      : 否
    已用接口                       : Win NT 及 2000 本地 Win32 接口

    所用输出格式 : 内部 WAV 函数
    样本格式     : 44.100 Hz;16 Bit;立体声


    被抓轨 CD 的 TOC

         音轨 |   开始   |   长度   | 起始扇区 | 结尾扇区
        --------------------------------------------------
           1  |  0:00.00 |  2:40.35 |       0  |   12034  
           2  |  2:40.35 |  2:33.11 |   12035  |   23520  
           3  |  5:13.46 |  1:55.39 |   23521  |   32184  
           4  |  7:09.10 |  0:09.11 |   32185  |   32870  
           5  |  7:18.21 |  0:07.70 |   32871  |   33465  
           6  |  7:26.16 |  0:16.70 |   33466  |   34735  
           7  |  7:43.11 |  1:44.20 |   34736  |   42555  
           8  |  9:27.31 |  2:22.35 |   42556  |   53240  
           9  | 11:49.66 |  0:06.00 |   53241  |   53690  
          10  | 11:55.66 |  0:07.43 |   53691  |   54258  
          11  | 12:03.34 |  1:10.74 |   54259  |   59582  
          12  | 13:14.33 |  0:36.26 |   59583  |   62308  
          13  | 13:50.59 |  0:06.70 |   62309  |   62828  
          14  | 13:57.54 |  1:02.41 |   62829  |   67519  
          15  | 15:00.20 |  0:25.56 |   67520  |   69450  
          16  | 15:26.01 |  1:02.67 |   69451  |   74167  
          17  | 16:28.68 |  0:32.41 |   74168  |   76608  
          18  | 17:01.34 |  1:08.13 |   76609  |   81721  
          19  | 18:09.47 |  0:54.17 |   81722  |   85788  
          20  | 19:03.64 |  1:05.70 |   85789  |   90733  
          21  | 20:09.59 |  2:06.16 |   90734  |  100199  
          22  | 22:16.00 |  0:59.55 |  100200  |  104679  
          23  | 23:15.55 |  0:59.07 |  104680  |  109111  
          24  | 24:14.62 |  0:56.15 |  109112  |  113326  
          25  | 25:11.02 |  0:38.39 |  113327  |  116215  
          26  | 25:49.41 |  0:57.59 |  116216  |  120549  
          27  | 26:47.25 |  0:07.72 |  120550  |  121146  
          28  | 26:55.22 |  0:25.72 |  121147  |  123093  
          29  | 27:21.19 |  2:59.04 |  123094  |  136522  
          30  | 30:20.23 |  1:16.23 |  136523  |  142245  
          31  | 31:36.46 |  1:28.40 |  142246  |  148885  
          32  | 33:05.11 |  1:52.53 |  148886  |  157338  
          33  | 34:57.64 |  2:27.66 |  157339  |  168429  
          34  | 37:25.55 |  2:16.62 |  168430  |  178691  
          35  | 39:42.42 |  1:05.02 |  178692  |  183568  
          36  | 40:47.44 |  0:07.07 |  183569  |  184100  
          37  | 40:54.51 |  2:40.45 |  184101  |  196145  
          38  | 43:35.21 |  0:25.12 |  196146  |  198032  
          39  | 44:00.33 |  0:07.32 |  198033  |  198589  
          40  | 44:07.65 |  2:42.27 |  198590  |  210766  
          41  | 46:50.17 |  1:37.36 |  210767  |  218077  
          42  | 48:27.53 |  0:26.39 |  218078  |  220066  
          43  | 48:54.17 |  1:54.06 |  220067  |  228622  
          44  | 50:48.23 |  2:29.11 |  228623  |  239808  
          45  | 53:17.34 |  2:33.61 |  239809  |  251344  
          46  | 55:51.20 |  2:26.21 |  251345  |  262315  
          47  | 58:17.41 |  5:47.14 |  262316  |  288354  
          48  | 64:04.55 |  1:55.73 |  288355  |  297052  
          49  | 66:00.53 |  1:20.10 |  297053  |  303062  
          50  | 67:20.63 |  2:04.21 |  303063  |  312383  
          51  | 69:25.09 |  1:41.29 |  312384  |  319987  
          52  | 71:06.38 |  2:02.34 |  319988  |  329171  
          53  | 73:08.72 |  1:57.74 |  329172  |  338020  
          54  | 75:06.71 |  0:53.21 |  338021  |  342016  
          55  | 76:00.17 |  0:06.26 |  342017  |  342492  
          56  | 76:06.43 |  0:06.51 |  342493  |  342993  
          57  | 76:13.19 |  0:06.00 |  342994  |  343443  


    范围状态及错误

    已选择范围

         文件名 H:\未知艺术家 - 未知标题.wav

         峰值电平 94.4 %
         范围质量 100.0 %
         复制 CRC 63E4CF95
         复制成功

    没有错误发生

    状态报告结尾

    Disc 2
    Exact Audio Copy V1.3 from 2. September 2016

    EAC extraction logfile from 5. February 2018, 10:18

    未知艺术家 / 未知标题

    Used drive  : ASUS    DRW-2014L1T   Adapter: 1  ID: 0

    Read mode               : Secure
    Utilize accurate stream : Yes
    Defeat audio cache      : Yes
    Make use of C2 pointers : No

    Read offset correction                      : 6
    Overread into Lead-In and Lead-Out          : No
    Fill up missing offset samples with silence : Yes
    Delete leading and trailing silent blocks   : No
    Null samples used in CRC calculations       : Yes
    Used interface                              : Native Win32 interface for Win NT & 2000

    Used output format : Internal WAV Routines
    Sample format      : 44.100 Hz; 16 Bit; Stereo


    TOC of the extracted CD

         Track |   Start  |  Length  | Start sector | End sector
        ---------------------------------------------------------
            1  |  0:00.00 |  0:06.00 |         0    |      449   
            2  |  0:06.00 |  0:47.73 |       450    |     4047   
            3  |  0:53.73 |  2:02.35 |      4048    |    13232   
            4  |  2:56.33 |  0:32.47 |     13233    |    15679   
            5  |  3:29.05 |  1:31.51 |     15680    |    22555   
            6  |  5:00.56 |  2:32.43 |     22556    |    33998   
            7  |  7:33.24 |  1:23.20 |     33999    |    40243   
            8  |  8:56.44 |  1:55.69 |     40244    |    48937   
            9  | 10:52.38 |  2:00.74 |     48938    |    58011   
           10  | 12:53.37 |  0:33.58 |     58012    |    60544   
           11  | 13:27.20 |  0:12.00 |     60545    |    61444   
           12  | 13:39.20 |  1:10.23 |     61445    |    66717   
           13  | 14:49.43 |  0:08.26 |     66718    |    67343   
           14  | 14:57.69 |  0:06.00 |     67344    |    67793   
           15  | 15:03.69 |  1:00.15 |     67794    |    72308   
           16  | 16:04.09 |  0:40.11 |     72309    |    75319   
           17  | 16:44.20 |  0:37.02 |     75320    |    78096   
           18  | 17:21.22 |  0:27.43 |     78097    |    80164   
           19  | 17:48.65 |  0:35.69 |     80165    |    82858   
           20  | 18:24.59 |  0:09.27 |     82859    |    83560   
           21  | 18:34.11 |  1:45.51 |     83561    |    91486   
           22  | 20:19.62 |  0:58.34 |     91487    |    95870   
           23  | 21:18.21 |  0:41.03 |     95871    |    98948   
           24  | 21:59.24 |  0:40.37 |     98949    |   101985   
           25  | 22:39.61 |  0:32.00 |    101986    |   104385   
           26  | 23:11.61 |  0:08.55 |    104386    |   105040   
           27  | 23:20.41 |  0:19.17 |    105041    |   106482   
           28  | 23:39.58 |  0:06.00 |    106483    |   106932   
           29  | 23:45.58 |  0:12.26 |    106933    |   107858   
           30  | 23:58.09 |  0:07.52 |    107859    |   108435   
           31  | 24:05.61 |  1:16.03 |    108436    |   114138   
           32  | 25:21.64 |  1:18.04 |    114139    |   119992   
           33  | 26:39.68 |  0:13.49 |    119993    |   121016   
           34  | 26:53.42 |  1:14.41 |    121017    |   126607   
           35  | 28:08.08 |  0:33.54 |    126608    |   129136   
           36  | 28:41.62 |  0:25.43 |    129137    |   131054   
           37  | 29:07.30 |  1:12.20 |    131055    |   136474   
           38  | 30:19.50 |  0:11.49 |    136475    |   137348   
           39  | 30:31.24 |  2:00.25 |    137349    |   146373   
           40  | 32:31.49 |  0:51.52 |    146374    |   150250   
           41  | 33:23.26 |  0:46.22 |    150251    |   153722   
           42  | 34:09.48 |  0:52.40 |    153723    |   157662   
           43  | 35:02.13 |  1:02.13 |    157663    |   162325   
           44  | 36:04.26 |  0:35.49 |    162326    |   164999   
           45  | 36:40.00 |  2:05.37 |    165000    |   174411   
           46  | 38:45.37 |  1:21.46 |    174412    |   180532   
           47  | 40:07.08 |  0:27.62 |    180533    |   182619   
           48  | 40:34.70 |  1:43.29 |    182620    |   190373   
           49  | 42:18.24 |  2:09.14 |    190374    |   200062   
           50  | 44:27.38 |  0:06.00 |    200063    |   200512   
           51  | 44:33.38 |  0:33.57 |    200513    |   203044   
           52  | 45:07.20 |  0:08.71 |    203045    |   203715   
           53  | 45:16.16 |  0:59.11 |    203716    |   208151   
           54  | 46:15.27 |  0:06.00 |    208152    |   208601   
           55  | 46:21.27 |  0:11.36 |    208602    |   209462   
           56  | 46:32.63 |  2:17.42 |    209463    |   219779   
           57  | 48:50.30 |  0:07.74 |    219780    |   220378   
           58  | 48:58.29 |  0:38.46 |    220379    |   223274   
           59  | 49:37.00 |  2:31.71 |    223275    |   234670   
           60  | 52:08.71 |  0:08.34 |    234671    |   235304   
           61  | 52:17.30 |  3:05.53 |    235305    |   249232   
           62  | 55:23.08 |  1:13.60 |    249233    |   254767   
           63  | 56:36.68 |  0:27.67 |    254768    |   256859   
           64  | 57:04.60 |  0:09.32 |    256860    |   257566   
           65  | 57:14.17 |  0:08.61 |    257567    |   258227   
           66  | 57:23.03 |  0:41.23 |    258228    |   261325   
           67  | 58:04.26 |  0:06.00 |    261326    |   261775   
           68  | 58:10.26 |  0:52.26 |    261776    |   265701   
           69  | 59:02.52 |  2:19.11 |    265702    |   276137   
           70  | 61:21.63 |  0:06.00 |    276138    |   276587   
           71  | 61:27.63 |  0:58.67 |    276588    |   281004   
           72  | 62:26.55 |  0:07.74 |    281005    |   281603   
           73  | 62:34.54 |  1:34.05 |    281604    |   288658   
           74  | 64:08.59 |  1:29.04 |    288659    |   295337   
           75  | 65:37.63 |  0:38.16 |    295338    |   298203   
           76  | 66:16.04 |  2:00.27 |    298204    |   307230   
           77  | 68:16.31 |  1:54.31 |    307231    |   315811   
           78  | 70:10.62 |  0:06.00 |    315812    |   316261   
           79  | 70:16.62 |  2:53.41 |    316262    |   329277   
           80  | 73:10.28 |  1:43.63 |    329278    |   337065   
           81  | 74:54.16 |  1:22.25 |    337066    |   343240   
           82  | 76:16.41 |  0:11.22 |    343241    |   344087   
           83  | 76:27.63 |  0:06.00 |    344088    |   344537   


    Range status and errors

    Selected range

         Filename D:\未知艺术家 - 未知标题.wav

         Peak level 94.4 %
         Extraction speed 2.4 X
         Range quality 100.0 %
         Copy CRC DD5C7075
         Copy OK

    No errors occurred

    End of status report

    ---- CUETools DB Plugin V2.1.6

    [CTDB TOCID: .kfkiZVW9pjBD6rTP_r9wTNswCI-] database access error: The remote name could not be resolved: 'db.cuetools.net'


    ==== Log checksum 5697D19C303F76DC08E8F926ABF2DAF7EE6B5A54A9929BB98C2FB4A46C70C069 ====

    Disc 3
    Exact Audio Copy V1.3 from 2. September 2016

    EAC extraction logfile from 5. February 2018, 10:56

    未知艺术家 / 未知标题

    Used drive  : ASUS    DRW-2014L1T   Adapter: 1  ID: 0

    Read mode               : Secure
    Utilize accurate stream : Yes
    Defeat audio cache      : Yes
    Make use of C2 pointers : No

    Read offset correction                      : 6
    Overread into Lead-In and Lead-Out          : No
    Fill up missing offset samples with silence : Yes
    Delete leading and trailing silent blocks   : No
    Null samples used in CRC calculations       : Yes
    Used interface                              : Native Win32 interface for Win NT & 2000

    Used output format : Internal WAV Routines
    Sample format      : 44.100 Hz; 16 Bit; Stereo


    TOC of the extracted CD

         Track |   Start  |  Length  | Start sector | End sector
        ---------------------------------------------------------
            1  |  0:00.00 |  0:06.00 |         0    |      449   
            2  |  0:06.00 |  2:20.55 |       450    |    11004   
            3  |  2:26.55 |  1:17.15 |     11005    |    16794   
            4  |  3:43.70 |  0:06.00 |     16795    |    17244   
            5  |  3:49.70 |  2:18.74 |     17245    |    27668   
            6  |  6:08.69 |  0:58.61 |     27669    |    32079   
            7  |  7:07.55 |  1:42.73 |     32080    |    39802   
            8  |  8:50.53 |  0:44.67 |     39803    |    43169   
            9  |  9:35.45 |  0:59.57 |     43170    |    47651   
           10  | 10:35.27 |  2:06.11 |     47652    |    57112   
           11  | 12:41.38 |  1:12.68 |     57113    |    62580   
           12  | 13:54.31 |  1:26.56 |     62581    |    69086   
           13  | 15:21.12 |  0:19.17 |     69087    |    70528   
           14  | 15:40.29 |  0:06.00 |     70529    |    70978   
           15  | 15:46.29 |  1:20.05 |     70979    |    76983   
           16  | 17:06.34 |  0:24.17 |     76984    |    78800   
           17  | 17:30.51 |  0:53.33 |     78801    |    82808   
           18  | 18:24.09 |  0:26.61 |     82809    |    84819   
           19  | 18:50.70 |  0:37.31 |     84820    |    87625   
           20  | 19:28.26 |  0:34.60 |     87626    |    90235   
           21  | 20:03.11 |  0:35.62 |     90236    |    92922   
           22  | 20:38.73 |  0:35.04 |     92923    |    95551   
           23  | 21:14.02 |  0:19.73 |     95552    |    97049   
           24  | 21:34.00 |  0:09.57 |     97050    |    97781   
           25  | 21:43.57 |  0:53.32 |     97782    |   101788   
           26  | 22:37.14 |  1:15.61 |    101789    |   107474   
           27  | 23:53.00 |  0:58.56 |    107475    |   111880   
           28  | 24:51.56 |  0:06.00 |    111881    |   112330   
           29  | 24:57.56 |  0:49.22 |    112331    |   116027   
           30  | 25:47.03 |  0:06.00 |    116028    |   116477   
           31  | 25:53.03 |  1:25.74 |    116478    |   122926   
           32  | 27:19.02 |  1:18.27 |    122927    |   128803   
           33  | 28:37.29 |  1:12.29 |    128804    |   134232   
           34  | 29:49.58 |  2:03.40 |    134233    |   143497   
           35  | 31:53.23 |  0:09.38 |    143498    |   144210   
           36  | 32:02.61 |  2:06.67 |    144211    |   153727   
           37  | 34:09.53 |  1:45.17 |    153728    |   161619   
           38  | 35:54.70 |  1:40.02 |    161620    |   169121   
           39  | 37:34.72 |  2:54.56 |    169122    |   182227   
           40  | 40:29.53 |  0:06.00 |    182228    |   182677   
           41  | 40:35.53 |  0:54.54 |    182678    |   186781   
           42  | 41:30.32 |  0:31.60 |    186782    |   189166   
           43  | 42:02.17 |  2:22.66 |    189167    |   199882   
           44  | 44:25.08 |  2:56.71 |    199883    |   213153   
           45  | 47:22.04 |  0:29.20 |    213154    |   215348   
           46  | 47:51.24 |  0:10.07 |    215349    |   216105   
           47  | 48:01.31 |  0:30.15 |    216106    |   218370   
           48  | 48:31.46 |  1:15.42 |    218371    |   224037   
           49  | 49:47.13 |  0:35.02 |    224038    |   226664   
           50  | 50:22.15 |  0:06.00 |    226665    |   227114   
           51  | 50:28.15 |  0:23.60 |    227115    |   228899   
           52  | 50:52.00 |  0:06.00 |    228900    |   229349   
           53  | 50:58.00 |  0:28.67 |    229350    |   231516   
           54  | 51:26.67 |  0:27.20 |    231517    |   233561   
           55  | 51:54.12 |  0:06.00 |    233562    |   234011   
           56  | 52:00.12 |  0:06.00 |    234012    |   234461   
           57  | 52:06.12 |  0:28.31 |    234462    |   236592   
           58  | 52:34.43 |  0:06.00 |    236593    |   237042   
           59  | 52:40.43 |  0:24.30 |    237043    |   238872   
           60  | 53:04.73 |  0:28.37 |    238873    |   241009   
           61  | 53:33.35 |  1:16.65 |    241010    |   246774   
           62  | 54:50.25 |  0:08.21 |    246775    |   247395   
           63  | 54:58.46 |  0:06.00 |    247396    |   247845   
           64  | 55:04.46 |  0:07.05 |    247846    |   248375   
           65  | 55:11.51 |  0:06.00 |    248376    |   248825   
           66  | 55:17.51 |  0:43.65 |    248826    |   252115   
           67  | 56:01.41 |  1:05.40 |    252116    |   257030   
           68  | 57:07.06 |  1:51.09 |    257031    |   265364   


    Range status and errors

    Selected range

         Filename D:\未知艺术家 - 未知标题.wav

         Peak level 94.7 %
         Extraction speed 2.4 X
         Range quality 100.0 %
         Copy CRC EC88AD92
         Copy OK

    No errors occurred

    End of status report

    ---- CUETools DB Plugin V2.1.6

    [CTDB TOCID: q1eE5R4lDg2OKnvuIK0So9o8QS4-] database access error: The remote name could not be resolved: 'db.cuetools.net'


    ==== Log checksum DF8CFF66F243A8A420038FA222E015B5629B514D066EE4D97F00E1A9045ABE3B ====

    Disc 4
    Exact Audio Copy V1.3 from 2. September 2016

    EAC extraction logfile from 5. February 2018, 11:43

    未知艺术家 / 未知标题

    Used drive  : ASUS    DRW-2014L1T   Adapter: 1  ID: 0

    Read mode               : Secure
    Utilize accurate stream : Yes
    Defeat audio cache      : Yes
    Make use of C2 pointers : No

    Read offset correction                      : 6
    Overread into Lead-In and Lead-Out          : No
    Fill up missing offset samples with silence : Yes
    Delete leading and trailing silent blocks   : No
    Null samples used in CRC calculations       : Yes
    Used interface                              : Native Win32 interface for Win NT & 2000

    Used output format : Internal WAV Routines
    Sample format      : 44.100 Hz; 16 Bit; Stereo


    TOC of the extracted CD

         Track |   Start  |  Length  | Start sector | End sector
        ---------------------------------------------------------
            1  |  0:00.00 |  0:06.00 |         0    |      449   
            2  |  0:06.00 |  0:53.41 |       450    |     4465   
            3  |  0:59.41 |  1:34.03 |      4466    |    11518   
            4  |  2:33.44 |  1:36.61 |     11519    |    18779   
            5  |  4:10.30 |  2:07.70 |     18780    |    28374   
            6  |  6:18.25 |  0:16.53 |     28375    |    29627   
            7  |  6:35.03 |  1:41.30 |     29628    |    37232   
            8  |  8:16.33 |  1:18.19 |     37233    |    43101   
            9  |  9:34.52 |  2:05.53 |     43102    |    52529   
           10  | 11:40.30 |  2:20.12 |     52530    |    63041   
           11  | 14:00.42 |  2:41.13 |     63042    |    75129   
           12  | 16:41.55 |  2:28.70 |     75130    |    86299   
           13  | 19:10.50 |  1:41.10 |     86300    |    93884   
           14  | 20:51.60 |  0:27.17 |     93885    |    95926   
           15  | 21:19.02 |  0:37.56 |     95927    |    98757   
           16  | 21:56.58 |  0:06.00 |     98758    |    99207   
           17  | 22:02.58 |  3:11.13 |     99208    |   113545   
           18  | 25:13.71 |  1:09.29 |    113546    |   118749   
           19  | 26:23.25 |  1:50.56 |    118750    |   127055   
           20  | 28:14.06 |  0:59.64 |    127056    |   131544   
           21  | 29:13.70 |  2:39.54 |    131545    |   143523   
           22  | 31:53.49 |  0:06.00 |    143524    |   143973   
           23  | 31:59.49 |  1:38.47 |    143974    |   151370   
           24  | 33:38.21 |  0:06.00 |    151371    |   151820   
           25  | 33:44.21 |  0:06.38 |    151821    |   152308   
           26  | 33:50.59 |  0:08.67 |    152309    |   152975   
           27  | 33:59.51 |  0:42.03 |    152976    |   156128   
           28  | 34:41.54 |  0:32.73 |    156129    |   158601   
           29  | 35:14.52 |  1:43.12 |    158602    |   166338   
           30  | 36:57.64 |  0:30.43 |    166339    |   168631   
           31  | 37:28.32 |  0:31.08 |    168632    |   170964   
           32  | 37:59.40 |  0:06.00 |    170965    |   171414   
           33  | 38:05.40 |  0:23.59 |    171415    |   173198   
           34  | 38:29.24 |  0:06.00 |    173199    |   173648   
           35  | 38:35.24 |  0:42.65 |    173649    |   176863   
           36  | 39:18.14 |  0:08.69 |    176864    |   177532   
           37  | 39:27.08 |  1:44.49 |    177533    |   185381   
           38  | 41:11.57 |  0:16.31 |    185382    |   186612   
           39  | 41:28.13 |  1:52.53 |    186613    |   195065   
           40  | 43:20.66 |  0:15.38 |    195066    |   196228   
           41  | 43:36.29 |  2:05.34 |    196229    |   205637   
           42  | 45:41.63 |  0:06.26 |    205638    |   206113   
           43  | 45:48.14 |  0:32.04 |    206114    |   208517   
           44  | 46:20.18 |  1:10.37 |    208518    |   213804   
           45  | 47:30.55 |  0:10.04 |    213805    |   214558   
           46  | 47:40.59 |  1:46.50 |    214559    |   222558   
           47  | 49:27.34 |  1:40.20 |    222559    |   230078   
           48  | 51:07.54 |  0:06.63 |    230079    |   230591   
           49  | 51:14.42 |  1:10.59 |    230592    |   235900   
           50  | 52:25.26 |  0:21.05 |    235901    |   237480   
           51  | 52:46.31 |  0:10.07 |    237481    |   238237   
           52  | 52:56.38 |  0:47.70 |    238238    |   241832   
           53  | 53:44.33 |  0:36.23 |    241833    |   244555   
           54  | 54:20.56 |  1:43.66 |    244556    |   252346   
           55  | 56:04.47 |  1:15.65 |    252347    |   258036   
           56  | 57:20.37 |  2:52.32 |    258037    |   270968   
           57  | 60:12.69 |  2:27.11 |    270969    |   282004   
           58  | 62:40.05 |  2:02.08 |    282005    |   291162   
           59  | 64:42.13 |  1:26.61 |    291163    |   297673   
           60  | 66:08.74 |  2:04.11 |    297674    |   306984   
           61  | 68:13.10 |  0:07.26 |    306985    |   307535   
           62  | 68:20.36 |  0:52.06 |    307536    |   311441   
           63  | 69:12.42 |  1:13.74 |    311442    |   316990   
           64  | 70:26.41 |  1:31.32 |    316991    |   323847   
           65  | 71:57.73 |  5:48.33 |    323848    |   349980   


    Range status and errors

    Selected range

         Filename D:\未知艺术家 - 未知标题.wav

         Peak level 94.6 %
         Extraction speed 2.4 X
         Range quality 100.0 %
         Copy CRC 0DE9ADBD
         Copy OK

    No errors occurred

    End of status report

    ---- CUETools DB Plugin V2.1.6

    [CTDB TOCID: _Q4TJVPmTr5h7mgVrKjPe23kuZ8-] database access error: The remote name could not be resolved: 'db.cuetools.net'


    ==== Log checksum E8BB4F61280F31282D5546ED1A7C7E5AEED1877CF8B6C403E195DB418EBD8395 ====

    自购证明
    游客本帖隐藏的内容需要积分高于 999999 才可浏览,您当前积分为 0 (If you want to read the hidden contents,you should have 999999 “积分”,but you just have 0 “积分”) (もしあなたがこの隠れて内容を読みたいなら、“积分” 0 だけです。)

    【天使币 & 积分 简单获取教程】



    asuranet

    梦幻天使
    UID:646443
    精华:0
    主题:31
    帖子:123
    威望:1081
    天使币:1244
    宣传度:210
    天然°:170
    腹黑°:160
    精灵:0
    旺财币:0
    阅读权限:130
    注册时间:2013-4-5
    状态: 在线

    该用户从未签到

    asuranet 发表于 2018-2-14 12:55:51 |显示全部楼层
    thank you very much.

    使用道具 举报

    vicvance

    梦幻天使
    UID:39832
    精华:0
    主题:34
    帖子:10327
    威望:12676
    天使币:4948
    宣传度:719
    天然°:320
    腹黑°:320
    精灵:5
    旺财币:0
    阅读权限:130
    注册时间:2011-4-27
    状态: 在线

  • TA的每日心情

    签到天数: 1673天[LV.Master]伴坛终老

  • vicvance 发表于 2018-2-14 16:24:58 |显示全部楼层
    升级
    谢谢楼主分享

    使用道具 举报

    rock666

    LEVEL 1 断罪
    UID:1664003
    精华:0
    主题:1
    帖子:89
    威望:65
    天使币:358
    宣传度:0
    天然°:0
    腹黑°:0
    精灵:0
    旺财币:0
    阅读权限:10
    注册时间:2017-7-24
    状态: 在线

  • TA的每日心情
    开心

    签到天数: 39天[LV.5]常住居民I

  • rock666 发表于 2018-2-14 16:41:32 |显示全部楼层
    感谢楼楼分享!

    使用道具 举报

    ddt1028

    LEVEL 4 睿智
    UID:13665
    精华:0
    主题:2
    帖子:1669
    威望:1917
    天使币:555
    宣传度:69
    天然°:87
    腹黑°:71
    精灵:2
    旺财币:0
    阅读权限:35
    注册时间:2011-2-10
    状态: 不在线

  • TA的每日心情

    签到天数: 1081天[LV.Master]伴坛终老

  • ddt1028 发表于 2018-2-14 20:30:15 |显示全部楼层
    滿少見的專輯 感謝分享

    使用道具 举报

    风早观仁
    北方有风~其名为早

    雨泽天使
    UID:14589
    头衔:眼镜协会常驻会员
    精华:2
    主题:232
    帖子:3574
    威望:37273
    天使币:92183
    宣传度:2969
    天然°:12606
    腹黑°:11453
    精灵:169
    旺财币:0
    阅读权限:150
    注册时间:2011-2-12
    来自:又挤又冷的邪都
    状态: 不在线

  • TA的每日心情

    签到天数: 150天[LV.8]以坛为家I

  • 风早观仁 发表于 2018-2-14 22:38:07 |显示全部楼层
    感谢分享~然后宣传组博客发布~

    使用道具 举报

    mellow2013

    LEVEL 2 升华
    UID:1222263
    精华:0
    主题:0
    帖子:284
    威望:251
    天使币:1132
    宣传度:0
    天然°:0
    腹黑°:0
    精灵:0
    旺财币:0
    阅读权限:15
    注册时间:2015-3-21
    状态: 不在线

  • TA的每日心情
    无聊

    签到天数: 240天[LV.9]以坛为家II

  • mellow2013 发表于 2018-2-14 22:47:01 |显示全部楼层
    感謝分享

    使用道具 举报

    wy51

    梦幻天使★
    UID:28792
    头衔:ACG爱好者
    精华:0
    主题:1
    帖子:12775
    威望:43015
    天使币:9412
    宣传度:1768
    天然°:4194
    腹黑°:3828
    精灵:0
    旺财币:0
    阅读权限:135
    注册时间:2011-3-25
    状态: 不在线

  • TA的每日心情
    擦汗

    签到天数: 1446天[LV.Master]伴坛终老

  • wy51 发表于 2018-2-14 22:58:23 |显示全部楼层
    O(∩_∩)O谢谢楼主分享

    使用道具 举报

    finnegan

    LEVEL 6 圣洁
    UID:411671
    精华:0
    主题:9
    帖子:3964
    威望:2631
    天使币:2810
    宣传度:176
    天然°:84
    腹黑°:80
    精灵:5
    旺财币:0
    阅读权限:40
    注册时间:2012-8-26
    来自:香港
    状态: 不在线

  • TA的每日心情
    无聊

    签到天数: 1973天[LV.Master]伴坛终老

  • finnegan 发表于 2018-2-15 00:30:39 |显示全部楼层
    谢谢楼主

    使用道具 举报

    prism_123

    LEVEL 3 POWER
    UID:45245
    精华:0
    主题:1
    帖子:808
    威望:799
    天使币:17
    宣传度:25
    天然°:10
    腹黑°:10
    精灵:1
    旺财币:0
    阅读权限:25
    注册时间:2011-5-11
    状态: 不在线

  • TA的每日心情
    擦汗

    签到天数: 491天[LV.Master]伴坛终老

  • prism_123 发表于 2018-2-15 13:23:10 |显示全部楼层
    感谢楼主新年分享。

    使用道具 举报

    您需要登录后才可以回帖 登录 | 注册

    加天使同城QQ群,有威望奖励~

    回顶部