快捷导航

查看: 112|回复: 15

[动漫音乐] [PlanA-51][EAC自抓][100324]犬夜叉 ベストソング ヒストリー 初回限定盤 2CD+DVD[WAV+CUE +LOG+BK+DVD][2.51GB] [复制链接]

会计师

梦幻天使
UID:1315085
头衔:微博@亲王殿下有点忙
精华:0
主题:135
帖子:885
威望:9788
天使币:113632
宣传度:1023
天然°:1807
腹黑°:1799
精灵:110
红玫瑰:0
白蔷薇:0
阅读权限:130
注册时间:2015-8-9
来自:M79小行星群
状态: 不在线

  • TA的每日心情
    开心

    签到天数: 377天[LV.Master]伴坛终老

  • 会计师 发表于 2018-2-14 16:44:16 |显示全部楼层



    基本信息

    •CD+DVD (2010年3月24日)

    •碟数: 3

    •格式: CD+DVD, Limited Edition

    •出版社: エイベックス・ピクチャーズ

    •时间: 133 分

    •ASIN: B00359YAAO

    •JAN: 4988064296545

    曲目列表

    CD:1

    1. CHANGE THE WORLD

    2. My will

    3. 深い森

    4. I am

    5. Dearest

    6. Every Heart -ミンナノキモチ-

    7. 終わりない夢

    8. 真実の詩

    9. Grip!

    10. イタズラなKISS

    11. 卒業~さよならは明日のために~(ONE VERSION)

    12. One Day,One Dream

    13. Come

    14. ANGELUS-アンジェラス-

    15. Brand-New World

    CD:2

    1. 君がいない未来

    2. With you

    3. Diamond

    4. 遠い道の先で

    5. 最終話サブタイトル (BonusTrack#1/『犬夜叉完結編』)BGM集)

    6. 奈落の死 (Bonus Track#1/『犬夜叉 完結編』)BGM集)

    7. 終わりなき闘い (BonusTrack#1/『犬夜叉完結編』)BGM集)

    8. 犬夜叉の想い (BonusTrack#1/『犬夜叉完結編』)BGM集)

    9. 四魂の玉の最後 (Bonus Track#1/『犬夜叉 完結編』)BGM集)

    10. 三年後 (Bonus Track#1/『犬夜叉 完結編』)BGM集)

    11. 星空の下 (Bonus Track#1/『犬夜叉 完結編』)BGM集)

    12. 明日へ (Bonus Track#1/『犬夜叉 完結編』)BGM集)

    13. 犬夜叉伝 (Special BonusTrack) (Bonus Track#1/『犬夜叉完結編』)BGM集)

    14. no more words (Bonus Track#2/映画 主題歌・挿入歌集)

    15. ゆらゆら (Bonus Track#2/映画 主題歌・挿入歌集)

    16. 愛の謳 (Bonus Track#2/映画 主題歌・挿入歌集)

    17. Four Seasons (Bonus Track#2/映画 主題歌・挿入歌集)

    18. 楽園 (Bonus Track#2/映画 主題歌・挿入歌集)

    磁盘:3(DVD)

      1.CHANGE THE WORLD

      2.My will

      3. 深い森

      4.I am

      5.Dearest

      6.Every Heart -ミンナノキモチ-

      7. 終わりない夢

      8. 真実の詩

      9.Grip!

      10.イタズラなKISS

      11.One Day,One Dream

      12.Come

      13.ANGELUS-アンジェラス-

      14.Brand-New World

      15.君がいない未来

      16.With you

      17.Diamond

      18.遠い道の先で

      19.『犬夜叉 完結編』トレーラー映像


    BK预览:




    DVD界面:




    自抓证明:


    Exact Audio Copy V1.3 from 2. September 2016


    EAC extraction logfile from 13. February 2018, 12:54


    Various / 犬夜叉 BEST SONG HISTORY CD1


    Used drive  : Optiarc BD ROM BC-5500A   Adapter: 1  ID: 0


    Read mode               : Secure

    Utilize accurate stream : Yes

    Defeat audio cache      : Yes

    Make use of C2 pointers : No


    Read offset correction                      : 48

    Overread into Lead-In and Lead-Out          : No

    Fill up missing offset samples with silence : Yes

    Delete leading and trailing silent blocks   : No

    Null samples used in CRC calculations       : Yes

    Used interface                              : Native Win32 interface for Win NT & 2000


    Used output format : Internal WAV Routines

    Sample format      : 44.100 Hz; 16 Bit; Stereo



    TOC of the extracted CD


         Track |   Start  |  Length  | Start sector | End sector

        ---------------------------------------------------------

            1  |  0:00.00 |  4:53.25 |         0    |    21999   

            2  |  4:53.25 |  5:20.58 |     22000    |    46057   

            3  | 10:14.08 |  4:04.21 |     46058    |    64378   

            4  | 14:18.29 |  4:46.56 |     64379    |    85884   

            5  | 19:05.10 |  5:33.04 |     85885    |   110863   

            6  | 24:38.14 |  4:33.63 |    110864    |   131401   

            7  | 29:12.02 |  4:47.51 |    131402    |   152977   

            8  | 33:59.53 |  4:14.50 |    152978    |   172077   

            9  | 38:14.28 |  4:51.49 |    172078    |   193951   

           10  | 43:06.02 |  4:20.39 |    193952    |   213490   

           11  | 47:26.41 |  6:33.61 |    213491    |   243026   

           12  | 54:00.27 |  4:22.06 |    243027    |   262682   

           13  | 58:22.33 |  4:35.44 |    262683    |   283351   

           14  | 62:58.02 |  4:17.57 |    283352    |   302683   

           15  | 67:15.59 |  4:16.16 |    302684    |   321899   



    Range status and errors


    Selected range


         Filename C:\Users\zhangxi\Desktop\[100324]犬夜叉 ベストソング ヒストリー 初回限定盤 CD+DVD\CD 1\Various - 犬夜叉 BEST SONG HISTORY CD1.wav


         Peak level 100.0 %

         Extraction speed 3.6 X

         Range quality 100.0 %

         Copy CRC 2B9A56FC

         Copy OK


    No errors occurred



    AccurateRip summary


    Track  1  cannot be verified as accurate (confidence 5)  [3C769C3F], AccurateRip returned [135609D0]  (AR v2)

    Track  2  cannot be verified as accurate (confidence 5)  [FEFBD4C9], AccurateRip returned [81DACC64]  (AR v2)

    Track  3  cannot be verified as accurate (confidence 5)  [EA7E2695], AccurateRip returned [0A887C85]  (AR v2)

    Track  4  cannot be verified as accurate (confidence 5)  [637BA4FF], AccurateRip returned [6118188D]  (AR v2)

    Track  5  cannot be verified as accurate (confidence 5)  [34DAC4D3], AccurateRip returned [25AE5A17]  (AR v2)

    Track  6  cannot be verified as accurate (confidence 5)  [5B9F9C27], AccurateRip returned [1B81B763]  (AR v2)

    Track  7  cannot be verified as accurate (confidence 5)  [6F38A797], AccurateRip returned [0E3B78C5]  (AR v2)

    Track  8  cannot be verified as accurate (confidence 5)  [5129299A], AccurateRip returned [C97F85DD]  (AR v2)

    Track  9  cannot be verified as accurate (confidence 5)  [F90CC57A], AccurateRip returned [F3ECBD79]  (AR v2)

    Track 10  cannot be verified as accurate (confidence 5)  [90729AEA], AccurateRip returned [6FFD1DCD]  (AR v2)

    Track 11  cannot be verified as accurate (confidence 5)  [A2C08A6E], AccurateRip returned [D6B4849F]  (AR v2)

    Track 12  cannot be verified as accurate (confidence 5)  [4B6233B5], AccurateRip returned [96A7457E]  (AR v2)

    Track 13  cannot be verified as accurate (confidence 5)  [C8E3F49A], AccurateRip returned [E5F2B661]  (AR v2)

    Track 14  cannot be verified as accurate (confidence 5)  [9EF6626E], AccurateRip returned [2B1B4CAF]  (AR v2)

    Track 15  cannot be verified as accurate (confidence 5)  [B7920F62], AccurateRip returned [59AF6C0B]  (AR v2)


    No tracks could be verified as accurate

    You may have a different pressing from the one(s) in the database


    End of status report


    ---- CUETools DB Plugin V2.1.6


    [CTDB TOCID: sj7YxG8gOoNE_fMX1aUbiP8g0QY-] found

    Submit result: sj7YxG8gOoNE_fMX1aUbiP8g0QY- has been confirmed

    Track | CTDB Status

      1   | (70/70) Accurately ripped

      2   | (70/70) Accurately ripped

      3   | (70/70) Accurately ripped

      4   | (70/70) Accurately ripped

      5   | (70/70) Accurately ripped

      6   | (70/70) Accurately ripped

      7   | (70/70) Accurately ripped

      8   | (69/70) Accurately ripped

      9   | (70/70) Accurately ripped

    10   | (70/70) Accurately ripped

    11   | (70/70) Accurately ripped

    12   | (70/70) Accurately ripped

    13   | (69/70) Accurately ripped

    14   | (70/70) Accurately ripped

    15   | (70/70) Accurately ripped



    ==== Log checksum 2B84ABD5C62A57E7E005CD315E6761024789C006C3ECD12A8576295A237F9462 ====


    Exact Audio Copy V1.3 from 2. September 2016


    EAC extraction logfile from 13. February 2018, 13:33


    Various Artists / 犬夜叉 BEST SONG HISTORY CD2


    Used drive  : Optiarc BD ROM BC-5500A   Adapter: 1  ID: 0


    Read mode               : Secure

    Utilize accurate stream : Yes

    Defeat audio cache      : Yes

    Make use of C2 pointers : No


    Read offset correction                      : 48

    Overread into Lead-In and Lead-Out          : No

    Fill up missing offset samples with silence : Yes

    Delete leading and trailing silent blocks   : No

    Null samples used in CRC calculations       : Yes

    Used interface                              : Native Win32 interface for Win NT & 2000


    Used output format : Internal WAV Routines

    Sample format      : 44.100 Hz; 16 Bit; Stereo



    TOC of the extracted CD


         Track |   Start  |  Length  | Start sector | End sector

        ---------------------------------------------------------

            1  |  0:00.00 |  4:20.35 |         0    |    19534   

            2  |  4:20.35 |  4:17.41 |     19535    |    38850   

            3  |  8:38.01 |  4:32.14 |     38851    |    59264   

            4  | 13:10.15 |  3:34.69 |     59265    |    75383   

            5  | 16:45.09 |  0:12.16 |     75384    |    76299   

            6  | 16:57.25 |  2:49.54 |     76300    |    89028   

            7  | 19:47.04 |  2:18.44 |     89029    |    99422   

            8  | 22:05.48 |  2:44.25 |     99423    |   111747   

            9  | 24:49.73 |  2:37.25 |    111748    |   123547   

           10  | 27:27.23 |  1:16.69 |    123548    |   129316   

           11  | 28:44.17 |  1:08.65 |    129317    |   134481   

           12  | 29:53.07 |  5:34.40 |    134482    |   159571   

           13  | 35:27.47 |  3:10.06 |    159572    |   173827   

           14  | 38:37.53 |  5:43.20 |    173828    |   199572   

           15  | 44:20.73 |  3:52.28 |    199573    |   217000   

           16  | 48:13.26 |  4:51.53 |    217001    |   238878   

           17  | 53:05.04 |  3:50.01 |    238879    |   256129   

           18  | 56:55.05 |  4:55.62 |    256130    |   278316   



    Range status and errors


    Selected range


         Filename C:\Users\zhangxi\Desktop\[100324]犬夜叉 ベストソング ヒストリー 初回限定盤 CD+DVD\CD 2\Various Artists - 犬夜叉 BEST SONG HISTORY CD2.wav


         Peak level 100.0 %

         Extraction speed 3.2 X

         Range quality 100.0 %

         Copy CRC F66FE4A6

         Copy OK


    No errors occurred



    AccurateRip summary


    Track  1  accurately ripped (confidence 5)  [8E4AFFD4]  (AR v2)

    Track  2  accurately ripped (confidence 5)  [0729B429]  (AR v2)

    Track  3  accurately ripped (confidence 5)  [FFE040F5]  (AR v2)

    Track  4  accurately ripped (confidence 5)  [A54FE2ED]  (AR v2)

    Track  5  accurately ripped (confidence 5)  [69386EFC]  (AR v2)

    Track  6  accurately ripped (confidence 5)  [DF3F0C28]  (AR v2)

    Track  7  accurately ripped (confidence 5)  [A2DA9961]  (AR v2)

    Track  8  accurately ripped (confidence 5)  [9E765DDB]  (AR v2)

    Track  9  accurately ripped (confidence 5)  [2D2F0DB1]  (AR v2)

    Track 10  accurately ripped (confidence 5)  [DD8BB362]  (AR v2)

    Track 11  accurately ripped (confidence 5)  [5C0D8825]  (AR v2)

    Track 12  accurately ripped (confidence 5)  [8AE2F4A0]  (AR v2)

    Track 13  accurately ripped (confidence 5)  [672EEEF2]  (AR v2)

    Track 14  accurately ripped (confidence 5)  [2AB7ADD9]  (AR v2)

    Track 15  accurately ripped (confidence 5)  [5E50C3D6]  (AR v2)

    Track 16  accurately ripped (confidence 5)  [DE9C1152]  (AR v2)

    Track 17  accurately ripped (confidence 5)  [05CF94B9]  (AR v2)

    Track 18  accurately ripped (confidence 5)  [1FD374B2]  (AR v2)


    All tracks accurately ripped


    End of status report


    ---- CUETools DB Plugin V2.1.6


    [CTDB TOCID: aWTDqXP0mj0CR4moA11s6fg9Iks-] found

    Submit result: aWTDqXP0mj0CR4moA11s6fg9Iks- has been confirmed

    Track | CTDB Status

      1   | (67/67) Accurately ripped

      2   | (66/67) Accurately ripped

      3   | (67/67) Accurately ripped

      4   | (67/67) Accurately ripped

      5   | (67/67) Accurately ripped

      6   | (67/67) Accurately ripped

      7   | (67/67) Accurately ripped

      8   | (67/67) Accurately ripped

      9   | (67/67) Accurately ripped

    10   | (67/67) Accurately ripped

    11   | (67/67) Accurately ripped

    12   | (66/67) Accurately ripped

    13   | (66/67) Accurately ripped

    14   | (67/67) Accurately ripped

    15   | (67/67) Accurately ripped

    16   | (67/67) Accurately ripped

    17   | (67/67) Accurately ripped

    18   | (67/67) Accurately ripped



    ==== Log checksum C0DFB91E48E4CD92D10CA65C08C34AE182578DA1933FF97A4490367A0ECCDD07 ====



    DVD拉取截图


    禁止转载!

    会计师绝对不是学会计的!!!
    会计师绝对不是学会计的!!!
    会计师绝对不是学会计的!!!
    E-A

    梦幻天使
    UID:1354706
    精华:0
    主题:1
    帖子:1230
    威望:3249
    天使币:7626
    宣传度:106
    天然°:27
    腹黑°:11
    精灵:0
    红玫瑰:0
    白蔷薇:0
    阅读权限:130
    注册时间:2015-10-28
    状态: 不在线

  • TA的每日心情
    开心

    签到天数: 947天[LV.Master]伴坛终老

  • E-A 发表于 2018-2-14 17:47:50 |显示全部楼层
    升级
    多谢分享佳作CD。

    使用道具 举报

    真龙王机

    梦幻天使
    UID:1590624
    头衔:四灵之超机人
    精华:0
    主题:21
    帖子:648
    威望:5805
    天使币:22386
    宣传度:790
    天然°:752
    腹黑°:740
    精灵:100
    红玫瑰:0
    白蔷薇:0
    阅读权限:130
    注册时间:2016-11-26
    来自:吉林
    状态: 不在线

  • TA的每日心情
    开心

    签到天数: 398天[LV.Master]伴坛终老

  • 真龙王机 发表于 2018-2-14 19:34:22 |显示全部楼层
    还是喜欢过去的老动画的歌曲,多谢楼主。

    使用道具 举报

    annx2635

    禁止发言
    UID:1712217
    精华:0
    主题:0
    帖子:27
    威望:169
    天使币:316
    宣传度:0
    天然°:1
    腹黑°:1
    精灵:0
    红玫瑰:0
    白蔷薇:0
    阅读权限:0
    注册时间:2018-2-14
    状态: 不在线

  • TA的每日心情
    开心

    签到天数: 3天[LV.2]偶尔看看I

  • annx2635 发表于 2018-2-14 20:53:43 来自手机 |显示全部楼层
    多谢分享,多谢楼主。

    使用道具 举报

    miaoyaohui

    梦幻天使
    UID:1662173
    精华:0
    主题:0
    帖子:494
    威望:680
    天使币:8296
    宣传度:50
    天然°:10
    腹黑°:-5
    精灵:0
    红玫瑰:0
    白蔷薇:0
    阅读权限:130
    注册时间:2017-7-18
    状态: 不在线

  • TA的每日心情
    开心

    签到天数: 365天[LV.Master]伴坛终老

  • miaoyaohui 发表于 2018-2-14 23:27:04 来自手机 |显示全部楼层
    哇⊙ω⊙!小时候看的动画,真让人怀念。而且今年狗年。

    使用道具 举报

    weidongxu

    LEVEL 2 升华
    UID:142506
    精华:0
    主题:5
    帖子:368
    威望:841
    天使币:751
    宣传度:15
    天然°:209
    腹黑°:180
    精灵:0
    红玫瑰:0
    白蔷薇:0
    阅读权限:25
    注册时间:2011-12-4
    状态: 不在线

  • TA的每日心情
    无聊

    签到天数: 1天[LV.1]初来乍到

  • weidongxu 发表于 2018-2-15 10:41:00 |显示全部楼层
    典藏物啊。。多谢分享!!!

    使用道具 举报

    ideafs

    LEVEL 1 断罪
    UID:1646956
    精华:0
    主题:0
    帖子:52
    威望:78
    天使币:342
    宣传度:0
    天然°:0
    腹黑°:0
    精灵:0
    红玫瑰:0
    白蔷薇:0
    阅读权限:10
    注册时间:2017-5-22
    状态: 不在线

  • TA的每日心情

    签到天数: 47天[LV.5]常住居民I

  • ideafs 发表于 2018-2-15 13:28:09 |显示全部楼层
    当年狗狗的歌真的很受欢迎啊~狗年快乐~

    另外建议多张CD分几个文件上传会好一些

    使用道具 举报

    伊吹玄子

    梦幻天使
    UID:1361380
    精华:0
    主题:0
    帖子:342
    威望:710
    天使币:3217
    宣传度:53
    天然°:10
    腹黑°:10
    精灵:0
    红玫瑰:0
    白蔷薇:0
    阅读权限:130
    注册时间:2015-11-11
    状态: 不在线

  • TA的每日心情
    开心

    签到天数: 301天[LV.Master]伴坛终老

  • 伊吹玄子 发表于 2018-2-15 14:17:53 |显示全部楼层
    这个就厉害了,好令人怀念的东西

    使用道具 举报

    jiayiming

    LEVEL 3 POWER
    UID:245411
    精华:0
    主题:1
    帖子:719
    威望:975
    天使币:4897
    宣传度:24
    天然°:20
    腹黑°:20
    精灵:1
    红玫瑰:0
    白蔷薇:0
    阅读权限:25
    注册时间:2012-4-3
    状态: 不在线

  • TA的每日心情
    郁闷

    签到天数: 554天[LV.Master]伴坛终老

  • jiayiming 发表于 2018-2-18 13:02:13 |显示全部楼层
    楼主厉害 还是初回

    使用道具 举报

    会计师

    梦幻天使
    UID:1315085
    头衔:微博@亲王殿下有点忙
    精华:0
    主题:135
    帖子:885
    威望:9788
    天使币:113632
    宣传度:1023
    天然°:1807
    腹黑°:1799
    精灵:110
    红玫瑰:0
    白蔷薇:0
    阅读权限:130
    注册时间:2015-8-9
    来自:M79小行星群
    状态: 不在线

  • TA的每日心情
    开心

    签到天数: 377天[LV.Master]伴坛终老

  • jiayiming 发表于 2018-2-18 13:02
    楼主厉害 还是初回

    当时也很惊讶,初回限定的全新盘亚马逊2500左右日元就可以买到手

    使用道具 举报

    您需要登录后才可以回帖 登录 | 注册

    加天使同城QQ群,有威望奖励~

    回顶部