快捷导航

查看: 47|回复: 6

[游戏音乐] [自购自抓][USSW-86]【主題歌】メモリーズオフ -Innocent Fille- OP 「レジリエンス」/彩音[WAV+CUE+LOG+MP4][437MB](特典映像附) [复制链接]

樱花树下实现

梦幻天使
UID:9515
精华:0
主题:15
帖子:48
威望:2203
天使币:8082
宣传度:449
天然°:472
腹黑°:472
精灵:17
旺财币:0
阅读权限:130
注册时间:2011-1-26
状态: 不在线

  • TA的每日心情
    开心

    签到天数: 26天[LV.4]偶尔看看III

  • 樱花树下实现 发表于 2018-4-17 00:14:20 |显示全部楼层


    【主題歌】メモリーズオフ -Innocent Fille- OP 「レジリエンス」/彩音
    発売日    :    2018年03月21日
    品 番    :    USSW-86
    仕 様    :    CD
    価 格    :    ¥1,296円(税込)




    商品詳細:

    せつなく儚い、ラストメモリーズ...
    メモオフシリーズ最新主題歌を収録した、彩音シングル。

    ◆OP&EDテーマ作詞作曲は、シリーズ歴代楽曲の数々手掛けた志倉千代丸が担当。
    ◆ファン待望、7年ぶりのゲーム「 メモオフ 」シリーズ最新作「 メモリーズオフ -Innocent Fille-( イノサン・フィーユ ) 」OP&EDテーマの2曲の新曲とそのカラオケを収録。
    ◆エンハンスドCD仕様:主題歌ショートMVを収録
    ◆ゲームイラストジャケット予定





    ◆收錄內容:

    ≪収録曲≫
    01. レジリエンス
    PS4/PS Vita/Windows PC(Steam/DMM)
    メモリーズオフ -Innocent Fille- OPテーマ

    02. あがらない雨はないんだよ
    PS4/PS Vita/Windows PC(Steam/DMM)
    メモリーズオフ -Innocent Fille- EDテーマ

    03. レジリエンス - off vocal -

    04. あがらない雨はないんだよ - off vocal -

    【特典映像】
    レジリエンス~彩音聖地巡礼~(Enhanced CD)




    LOG:

    Exact Audio Copy V1.3 from 2. September 2016

    EAC extraction logfile from 16. April 2018, 23:27

    【主題歌】メモリーズオフ -Innocent Fille- OP 「レジリエンス」/彩音 / メモリーズオフ -Innocent Fille

    Used drive  : hp      BD CMB UJ160   Adapter: 2  ID: 0

    Read mode               : Secure
    Utilize accurate stream : Yes
    Defeat audio cache      : Yes
    Make use of C2 pointers : No

    Read offset correction                      : 103
    Overread into Lead-In and Lead-Out          : No
    Fill up missing offset samples with silence : Yes
    Delete leading and trailing silent blocks   : No
    Null samples used in CRC calculations       : Yes
    Used interface                              : Native Win32 interface for Win NT & 2000

    Used output format : Internal WAV Routines
    Sample format      : 44.100 Hz; 16 Bit; Stereo


    TOC of the extracted CD

         Track |   Start  |  Length  | Start sector | End sector
        ---------------------------------------------------------
            1  |  0:00.00 |  4:17.15 |         0    |    19289  
            2  |  4:17.15 |  5:19.24 |     19290    |    43238  
            3  |  9:36.39 |  4:17.16 |     43239    |    62529  
            4  | 13:53.55 |  5:16.56 |     62530    |    86285  
            5  | 21:42.36 | 29:58.49 |     97686    |   232584  


    Range status and errors

    Selected range

         Filename D:\自购\【主題歌】メモリーズオフ -Innocent Fille- OP 「レジリエンス」,彩音 - メモリーズオフ -Innocent Fille.wav

         Peak level 99.3 %
         Extraction speed 3.4 X
         Range quality 100.0 %
         Copy CRC 353501CF
         Copy OK

    No errors occurred

    End of status report

    ---- CUETools DB Plugin V2.1.6

    [CTDB TOCID: YFB6V1kBmGNwUkbb9.Iorb.J9YM-] found
    Submit result: YFB6V1kBmGNwUkbb9.Iorb.J9YM- has been confirmed
    Track | CTDB Status
      1   | (6/6) Accurately ripped
      2   | (6/6) Accurately ripped
      3   | (6/6) Accurately ripped
      4   | (6/6) Accurately ripped


    ==== Log checksum 8DD72F4B87B4470F992B9387AEA7716848274E1A245D8D76395F360D5087684C ====





    自购自抓证明:
    游客本帖隐藏的内容需要积分高于 999999 才可浏览,您当前积分为 0 (If you want to read the hidden contents,you should have 999999 “积分”,but you just have 0 “积分”) (もしあなたがこの隠れて内容を読みたいなら、“积分” 0 だけです。)

    【天使币 & 积分 简单获取教程】






    miaoyaohui

    梦幻天使
    UID:1662173
    精华:0
    主题:0
    帖子:427
    威望:620
    天使币:4778
    宣传度:50
    天然°:10
    腹黑°:-5
    精灵:0
    旺财币:0
    阅读权限:130
    注册时间:2017-7-18
    状态: 在线

  • TA的每日心情
    开心

    签到天数: 305天[LV.Master]伴坛终老

  • miaoyaohui 发表于 2018-4-17 12:42:40 来自手机 |显示全部楼层
    秋之回忆8唉

    使用道具 举报

    miaoyaohui

    梦幻天使
    UID:1662173
    精华:0
    主题:0
    帖子:427
    威望:620
    天使币:4778
    宣传度:50
    天然°:10
    腹黑°:-5
    精灵:0
    旺财币:0
    阅读权限:130
    注册时间:2017-7-18
    状态: 在线

  • TA的每日心情
    开心

    签到天数: 305天[LV.Master]伴坛终老

  • miaoyaohui 发表于 2018-4-17 12:42:43 来自手机 |显示全部楼层
    升级
    秋之回忆8唉

    使用道具 举报

    琉璃药师
    药师

    梦幻天使
    UID:1579423
    头衔:我永远喜欢大野柚布子
    精华:0
    主题:22
    帖子:766
    威望:2088
    天使币:18052
    宣传度:389
    天然°:614
    腹黑°:585
    精灵:20
    旺财币:0
    CP:abc831203
    阅读权限:130
    注册时间:2016-11-2
    状态: 不在线

  • TA的每日心情
    开心

    签到天数: 360天[LV.Master]伴坛终老

  • 琉璃药师 发表于 2018-4-17 21:42:47 |显示全部楼层
    辛苦了

    天使动漫,这里大佬又多,说话又好听,关键是B还装的特别好,我超喜欢这里的!!

    使用道具 举报

    myfreesky

    LEVEL 2 升华
    UID:76308
    头衔:奈叶❤菲特
    精华:0
    主题:0
    帖子:284
    威望:368
    天使币:22
    宣传度:7
    天然°:20
    腹黑°:15
    精灵:0
    旺财币:0
    阅读权限:15
    注册时间:2011-8-3
    状态: 不在线

  • TA的每日心情
    郁闷

    签到天数: 69天[LV.6]常住居民II

  • myfreesky 发表于 2018-4-18 01:14:45 |显示全部楼层
    好听啊!!!!!!!!
    暴君最高!~~

    使用道具 举报

    zyma123

    梦幻天使
    UID:1590021
    精华:0
    主题:0
    帖子:222
    威望:604
    天使币:2268
    宣传度:50
    天然°:10
    腹黑°:0
    精灵:0
    旺财币:0
    阅读权限:130
    注册时间:2016-11-25
    状态: 不在线

  • TA的每日心情
    开心

    签到天数: 183天[LV.8]以坛为家I

  • zyma123 发表于 2018-4-20 22:21:02 |显示全部楼层
    辛苦了

    使用道具 举报

    MISAKA1328
    MISAKA1328

    LEVEL 4 睿智
    UID:247817
    精华:0
    主题:1
    帖子:2218
    威望:2116
    天使币:12632
    宣传度:13
    天然°:7
    腹黑°:5
    精灵:0
    旺财币:0
    阅读权限:40
    注册时间:2012-4-6
    来自:广州
    状态: 不在线

  • TA的每日心情

    签到天数: 1544天[LV.Master]伴坛终老

  • MISAKA1328 发表于 2018-5-13 20:42:31 |显示全部楼层
    感谢LZ分享的说。 。 。 。

    使用道具 举报

    您需要登录后才可以回帖 登录 | 注册

    加天使同城QQ群,有威望奖励~

    回顶部