背景音乐

天使动漫论坛 - 梦开始的地方

查看: 85|回复: 5

[游戏音乐] [自购自抓][USSW-85]彩音/レジリエンス ~Memories Off BEST~[WAV+CUE+LOG][717MB] [复制链接]

樱花树下实现

梦幻天使
UID:9515
精华:0
主题:16
帖子:50
威望:2257
天使币:8721
宣传度:464
天然°:487
腹黑°:487
精灵:18
旺财币:0
阅读权限:130
注册时间:2011-1-26
状态: 不在线

  • TA的每日心情
    郁闷

    签到天数: 27天[LV.4]偶尔看看III

  • 樱花树下实现 发表于 2018-4-17 13:15:24 |显示全部楼层


    【アルバム】彩音/レジリエンス ~Memories Off BEST~
    発売日    :    2018/03/21 発売
    品 番    :    USSW-85
    仕 様    :    CD
    価 格    :    ¥3,024円(税込)




    商品詳細:

    せつなく儚い、ラストメモリーズ...
    シリーズ最新主題歌と、彩音歴代メモオフソングを収録したメモオフベスト的アルバム。

    ◆OP&EDテーマ作詞作曲は、シリーズ歴代楽曲の数々手掛けた志倉千代丸が担当。
    ◆ファン待望、7年ぶりのゲーム「 メモオフ 」シリーズ最新作「 メモリーズオフ -Innocent Fille-( イノサン・フィーユ ) 」OP&EDテーマの2曲の新曲を収録。
    ◆シリーズの名曲の数々も収録した、彩音Memories Offベスト盤
    ◆ゲームイラストジャケット予定





    ◆收錄內容:

    ≪収録曲≫
    01. レジリエンス
    PS4/PS Vita/Windows PC(Steam/DMM)
    『メモリーズオフ -Innocent Fille-』OPテーマ

    02. あがらない雨はないんだよ
    PS4/PS Vita/Windows PC(Steam/DMM)
    『メモリーズオフ -Innocent Fille-』EDテーマ

    03. Film Makers
    OVA『Memories Off #5 とぎれたフィルム』OPテーマ

    04. プリミディア
    PS2ソフト『メモリーズオフ6~T-wave~』EDテーマ

    05. あの空の果てまで
    PSPソフト『Memories Off #5 とぎれたフィルム』OPテーマ

    06. ribbon~10th anniv. ver.~
    PS2ソフト『Memories Off After Rain』OPテーマ

    07. キミが居た証拠に
    PS2ソフト『Memories Off #5 encore』OPテーマ

    08. 君の描片~キミノカケラ~
    PSPソフト『想い出にかわる君~Memories Off~』OPテーマ
    『Memories Off~それから~』OPテーマ

    09. After Rain
    PS2ソフト『Memories Off After Rain』EDテーマ

    10. 永遠のメモリーズ
    PSPソフト『Memories Off』『Memories Off 2nd』OPテーマ

    11. かけがえのない思い ずっと一緒に
    PS3/PS Vitaソフト『Memories Off 6 Complete』OPテーマ

    12. ずっと一緒に もっと遠くまで
    PSPソフト『Memories Off 6~Next Relation~』EDテーマ

    13. 想い出はゆびきりの記憶へ
    Xbox 360ソフト『Memories Off ゆびきりの記憶』トゥルーEDテーマ

    14. ORANGE
    PS2ソフト『Memories Off #5 とぎれたフィルム』OPテーマ

    15. ロマンシングストーリー
    PS2ソフト『Memories Off #5 とぎれたフィルム』グランドEDテーマ

    16. ribbon ~メモオフバレンタインコンサート~

    17. After Rain ~メモオフバレンタインコンサート~



    LOG:

    Exact Audio Copy V1.3 from 2. September 2016

    EAC extraction logfile from 17. April 2018, 12:55

    彩音/レジリエンス ~Memories Off BEST~ / Memories Off

    Used drive  : hp      BD CMB UJ160   Adapter: 2  ID: 0

    Read mode               : Secure
    Utilize accurate stream : Yes
    Defeat audio cache      : Yes
    Make use of C2 pointers : No

    Read offset correction                      : 103
    Overread into Lead-In and Lead-Out          : No
    Fill up missing offset samples with silence : Yes
    Delete leading and trailing silent blocks   : No
    Null samples used in CRC calculations       : Yes
    Used interface                              : Native Win32 interface for Win NT & 2000

    Used output format : Internal WAV Routines
    Sample format      : 44.100 Hz; 16 Bit; Stereo


    TOC of the extracted CD

         Track |   Start  |  Length  | Start sector | End sector
        ---------------------------------------------------------
            1  |  0:00.00 |  4:16.08 |         0    |    19207   
            2  |  4:16.08 |  5:19.23 |     19208    |    43155   
            3  |  9:35.31 |  4:40.32 |     43156    |    64187   
            4  | 14:15.63 |  5:03.67 |     64188    |    86979   
            5  | 19:19.55 |  4:51.10 |     86980    |   108814   
            6  | 24:10.65 |  5:00.27 |    108815    |   131341   
            7  | 29:11.17 |  4:51.36 |    131342    |   153202   
            8  | 34:02.53 |  4:15.31 |    153203    |   172358   
            9  | 38:18.09 |  5:33.32 |    172359    |   197365   
           10  | 43:51.41 |  4:46.59 |    197366    |   218874   
           11  | 48:38.25 |  4:16.03 |    218875    |   238077   
           12  | 52:54.28 |  3:57.44 |    238078    |   255896   
           13  | 56:51.72 |  5:21.29 |    255897    |   280000   
           14  | 62:13.26 |  4:48.40 |    280001    |   301640   
           15  | 67:01.66 |  5:22.68 |    301641    |   325858   
           16  | 72:24.59 |  5:09.24 |    325859    |   349057   
           17  | 77:34.08 |  5:54.42 |    349058    |   375649   


    Range status and errors

    Selected range

         Filename D:\自购\彩音,レジリエンス ~Memories Off BEST~ - Memories Off.wav

         Peak level 99.8 %
         Extraction speed 1.4 X
         Range quality 99.9 %
         Copy CRC 69642CF3
         Copy OK

    No errors occurred

    End of status report

    ---- CUETools DB Plugin V2.1.6

    [CTDB TOCID: uKHHRQz45AShuB4RnRbyV9k1Tys-] found
    Submit result: uKHHRQz45AShuB4RnRbyV9k1Tys- has been confirmed
    Track | CTDB Status
      1   | (21/21) Accurately ripped
      2   | (21/21) Accurately ripped
      3   | (21/21) Accurately ripped
      4   | (21/21) Accurately ripped
      5   | (21/21) Accurately ripped
      6   | (21/21) Accurately ripped
      7   | (21/21) Accurately ripped
      8   | (21/21) Accurately ripped
      9   | (21/21) Accurately ripped
    10   | (21/21) Accurately ripped
    11   | (21/21) Accurately ripped
    12   | (21/21) Accurately ripped
    13   | (21/21) Accurately ripped
    14   | (21/21) Accurately ripped
    15   | (21/21) Accurately ripped
    16   | (21/21) Accurately ripped
    17   | (21/21) Accurately ripped


    ==== Log checksum 50F4197CC7DD0985717DAC7D96615C09AFE095A204983757453D617DECB89B5A ====




    自购自抓证明:
    游客本帖隐藏的内容需要积分高于 999999 才可浏览,您当前积分为 0 (If you want to read the hidden contents,you should have 999999 “积分”,but you just have 0 “积分”) (もしあなたがこの隠れて内容を読みたいなら、“积分” 0 だけです。)

    【天使币 & 积分 简单获取教程】






    风早观仁
    北方有风~其名为早

    雨泽天使
    UID:14589
    头衔:眼镜协会常驻会员
    精华:2
    主题:236
    帖子:3618
    威望:39453
    天使币:104109
    宣传度:3003
    天然°:13723
    腹黑°:12337
    精灵:169
    旺财币:0
    阅读权限:150
    注册时间:2011-2-12
    来自:又挤又冷的邪都
    状态: 不在线

  • TA的每日心情
    开心

    签到天数: 151天[LV.8]以坛为家I

  • 风早观仁 发表于 2018-4-17 19:31:52 |显示全部楼层
    升级
    感谢分享~然后宣传组博客发布~

    使用道具 举报

    k12345678920

    LEVEL 2 升华
    UID:755121
    精华:0
    主题:0
    帖子:298
    威望:227
    天使币:1161
    宣传度:2
    天然°:0
    腹黑°:0
    精灵:0
    旺财币:0
    阅读权限:15
    注册时间:2013-7-19
    状态: 不在线

  • TA的每日心情
    郁闷

    签到天数: 142天[LV.7]常住居民III

  • k12345678920 发表于 2018-4-18 21:52:56 |显示全部楼层
    谢谢分享哇

    使用道具 举报

    johnkenn
    kennfly

    梦幻天使
    UID:700881
    头衔:明日のメロデイー
    精华:0
    主题:1
    帖子:2475
    威望:2412
    天使币:2541
    宣传度:5
    天然°:50
    腹黑°:50
    精灵:0
    旺财币:0
    阅读权限:130
    注册时间:2013-5-26
    来自:福建
    状态: 在线

  • TA的每日心情
    郁闷

    签到天数: 1606天[LV.Master]伴坛终老

  • johnkenn 发表于 2018-4-21 00:25:54 |显示全部楼层
    thank you for sharing!

    使用道具 举报

    風影
    我愛羅

    梦幻天使
    UID:1624170
    精华:0
    主题:2
    帖子:753
    威望:3056
    天使币:8473
    宣传度:101
    天然°:160
    腹黑°:160
    精灵:0
    旺财币:0
    阅读权限:130
    注册时间:2017-2-21
    来自:東亞某島
    状态: 不在线

  • TA的每日心情
    奋斗

    签到天数: 468天[LV.Master]伴坛终老

  • 風影 发表于 2018-4-21 11:04:34 |显示全部楼层
    感謝分享。

    使用道具 举报

    mijc517
    虛幻

    LEVEL 8 执行者
    UID:7438
    头衔:NEET
    精华:0
    主题:6
    帖子:6159
    威望:12744
    天使币:17789
    宣传度:69
    天然°:429
    腹黑°:417
    精灵:0
    旺财币:0
    阅读权限:110
    注册时间:2011-1-12
    状态: 不在线

    雷丘 Lv. 82

  • TA的每日心情
    慵懒

    签到天数: 2002天[LV.Master]伴坛终老

  • mijc517 发表于 2018-5-10 14:38:41 |显示全部楼层
    感謝大大分享!
    不戳一下嗎?

    使用道具 举报

    您需要登录后才可以回帖 登录 | 注册

    加天使同城QQ群,有威望奖励~

    Archiver|WAP| 天使动漫论坛   

    声明:本站所有内容资源均来自网络&网友分享,仅供学习试用。如侵犯您的权益请告知,将会第一时间删除。广告联系我的邮箱

    GMT+8, 2018-9-23 02:30 , Processed in 0.173010 second(s), 39 queries , Gzip On, Memcache On.

    Powered by Discuz! X2

    © 2001-2011 Comsenz Inc.

    回顶部