背景音乐
动漫∨

ZZKeviness

梦幻天使
UID:1557906
精华:0
主题:6
帖子:113
威望:847
天使币:6628
宣传度:165
天然°:125
腹黑°:125
精灵:8
红玫瑰:0
白蔷薇:0
阅读权限:130
注册时间:2016-9-5
状态: 不在线

  • TA的每日心情
    开心

    签到天数: 83天[LV.6]常住居民II

  • ZZKeviness 发表于 2018-8-10 16:28:57 |显示全部楼层

    [attach]449491[/attach]
    Rayark Inc. - Deemo OST Vol.3
    01.        Alex Vourtsanis / Sunset                02:41
    02.        Sta / Vivere La Vita                02:05
    03.        Cranky / La Promesse                04:29
    04.        Morrigan & Cranky / Futarimichi                03:45
    05.        The SxPlay / Kimi ga nokoshita Sekai de                03:49
    06.        Orangentle / H                02:25
    07.        Sakuzyo / MagiCatz                02:31
    08.        Sakuzyo / Poem of Rapture                02:53
    09.        Kiv? / The Letter                03:17
    10.        3R2 / Farewell                02:18
    11.        Tatsh / Daylight                02:57
    12.        Ice / Amber Wishes (Deemo edit)                03:17
    13.        M2U feat. Guriri & Lucy / Myosotis                02:37
    14.        Mili / Cerebrite                02:43
    15.        Mili / A Turtle's Heart                03:05
    16.        Mili / Space Colony                03:14
    17.        Mili / Imagined Flight                03:31
    18.        Mili / Unidentified Flavourful Object                04:07
    19.        M2U / Arranger: M2U & NICODE / Lune                02:05
    20.        3R2 / Angelic Sphere                02:25
    21.        N.M.S.T. / Snowflakes                02:08
    22.        Vospi / Reverence (Deemo ver)                02:52
    23.        Presti / Veritas                02:41
    24.        NeLiME / Leviathan                02:15
    25.        Xi / ANiMA                01:59


    Exact Audio Copy V1.3 from 2. September 2016

    EAC extraction logfile from 10. August 2018, 13:17

    Rayark Inc. / Deemo OST Vol.3

    Used drive  : ASUS    DRW-24D5MT   Adapter: 1  ID: 2

    Read mode               : Secure
    Utilize accurate stream : Yes
    Defeat audio cache      : Yes
    Make use of C2 pointers : No

    Read offset correction                      : 6
    Overread into Lead-In and Lead-Out          : No
    Fill up missing offset samples with silence : Yes
    Delete leading and trailing silent blocks   : No
    Null samples used in CRC calculations       : Yes
    Used interface                              : Native Win32 interface for Win NT & 2000
    Gap handling                                : Appended to previous track

    Used output format              : User Defined Encoder
    Selected bitrate                : 1024 kBit/s
    Quality                         : High
    Add ID3 tag                     : No
    Command line compressor         : C:\Program Files (x86)\Exact Audio Copy\Flac\flac.exe
    Additional command line options : -8 -e -p -V -T "ARTIST=%artist%" -T "TITLE=%title%" -T "ALBUM=%albumtitle%" -T "DATE=%year%" -T "TRACKNUMBER=%tracknr%" -T "GENRE=%genre%" -T "COMMENT=%comment%" -T "BAND=%albuminterpret%" -T "ALBUMARTIST=%albuminterpret%" -T "COMPOSER=%composer%" %haslyrics%--tag-from-file=LYRICS="%lyricsfile%"%haslyrics% -T "DISCNUMBER=%cdnumber%" -T "TOTALDISCS=%totalcds%" -T "TOTALTRACKS=%numtracks%" %hascover%--picture="%coverfile%"%hascover% %source% -o %dest%


    TOC of the extracted CD

         Track |   Start  |  Length  | Start sector | End sector
        ---------------------------------------------------------
            1  |  0:00.00 |  2:41.01 |         0    |    12075   
            2  |  2:41.01 |  2:04.61 |     12076    |    21436   
            3  |  4:45.62 |  4:28.43 |     21437    |    41579   
            4  |  9:14.30 |  3:44.65 |     41580    |    58444   
            5  | 12:59.20 |  3:49.33 |     58445    |    75652   
            6  | 16:48.53 |  2:24.61 |     75653    |    86513   
            7  | 19:13.39 |  2:31.02 |     86514    |    97840   
            8  | 21:44.41 |  2:52.59 |     97841    |   110799   
            9  | 24:37.25 |  3:17.27 |    110800    |   125601   
           10  | 27:54.52 |  2:17.58 |    125602    |   135934   
           11  | 30:12.35 |  2:57.36 |    135935    |   149245   
           12  | 33:09.71 |  3:17.30 |    149246    |   164050   
           13  | 36:27.26 |  2:36.38 |    164051    |   175788   
           14  | 39:03.64 |  2:42.72 |    175789    |   188010   
           15  | 41:46.61 |  3:05.18 |    188011    |   201903   
           16  | 44:52.04 |  3:14.02 |    201904    |   216455   
           17  | 48:06.06 |  3:30.73 |    216456    |   232278   
           18  | 51:37.04 |  4:07.01 |    232279    |   250804   
           19  | 55:44.05 |  2:05.00 |    250805    |   260179   
           20  | 57:49.05 |  2:25.04 |    260180    |   271058   
           21  | 60:14.09 |  2:08.22 |    271059    |   280680   
           22  | 62:22.31 |  2:52.20 |    280681    |   293600   
           23  | 65:14.51 |  2:40.40 |    293601    |   305640   
           24  | 67:55.16 |  2:14.61 |    305641    |   315751   
           25  | 70:10.02 |  1:58.66 |    315752    |   324667   


    Track  1

         Filename D:\CD\Deemo OST Vol.3\01. Sunset.wav

         Pre-gap length  0:00:02.00

         Peak level 97.0 %
         Extraction speed 3.3 X
         Track quality 99.9 %
         Test CRC 9EFF7EC0
         Copy CRC 9EFF7EC0
         Copy OK

    Track  2

         Filename D:\CD\Deemo OST Vol.3\02. Vivere La Vita.wav

         Pre-gap length  0:00:02.00

         Peak level 96.7 %
         Extraction speed 3.2 X
         Track quality 99.9 %
         Test CRC C94534B6
         Copy CRC C94534B6
         Copy OK

    Track  3

         Filename D:\CD\Deemo OST Vol.3\03. La Promesse.wav

         Pre-gap length  0:00:02.00

         Peak level 97.3 %
         Extraction speed 4.4 X
         Track quality 99.9 %
         Test CRC 1F11CA94
         Copy CRC 1F11CA94
         Copy OK

    Track  4

         Filename D:\CD\Deemo OST Vol.3\04. Futarimichi.wav

         Pre-gap length  0:00:02.00

         Peak level 96.6 %
         Extraction speed 5.4 X
         Track quality 100.0 %
         Test CRC B0E8D877
         Copy CRC B0E8D877
         Copy OK

    Track  5

         Filename D:\CD\Deemo OST Vol.3\05. Kimi ga nokoshita Sekai de.wav

         Pre-gap length  0:00:02.00

         Peak level 96.6 %
         Extraction speed 5.7 X
         Track quality 100.0 %
         Test CRC 2A3220CF
         Copy CRC 2A3220CF
         Copy OK

    Track  6

         Filename D:\CD\Deemo OST Vol.3\06. H.wav

         Pre-gap length  0:00:02.00

         Peak level 96.6 %
         Extraction speed 5.6 X
         Track quality 100.0 %
         Test CRC A21EC625
         Copy CRC A21EC625
         Copy OK

    Track  7

         Filename D:\CD\Deemo OST Vol.3\07. MagiCatz.wav

         Pre-gap length  0:00:02.00

         Peak level 96.6 %
         Extraction speed 4.5 X
         Track quality 99.9 %
         Test CRC 41194D22
         Copy CRC 41194D22
         Copy OK

    Track  8

         Filename D:\CD\Deemo OST Vol.3\08. Poem of Rapture.wav

         Pre-gap length  0:00:02.00

         Peak level 96.6 %
         Extraction speed 6.1 X
         Track quality 100.0 %
         Test CRC 6047FC1E
         Copy CRC 6047FC1E
         Copy OK

    Track  9

         Filename D:\CD\Deemo OST Vol.3\09. The Letter.wav

         Pre-gap length  0:00:02.00

         Peak level 96.6 %
         Extraction speed 6.5 X
         Track quality 100.0 %
         Test CRC 0F407F4B
         Copy CRC 0F407F4B
         Copy OK

    Track 10

         Filename D:\CD\Deemo OST Vol.3\10. Farewell.wav

         Pre-gap length  0:00:02.00

         Peak level 97.7 %
         Extraction speed 4.7 X
         Track quality 99.9 %
         Test CRC 6DB9C530
         Copy CRC 6DB9C530
         Copy OK

    Track 11

         Filename D:\CD\Deemo OST Vol.3\11. Daylight.wav

         Pre-gap length  0:00:02.00

         Peak level 96.9 %
         Extraction speed 6.7 X
         Track quality 100.0 %
         Test CRC 72CBA64D
         Copy CRC 72CBA64D
         Copy OK

    Track 12

         Filename D:\CD\Deemo OST Vol.3\12. Amber Wishes (Deemo edit).wav

         Pre-gap length  0:00:02.00

         Peak level 97.0 %
         Extraction speed 7.0 X
         Track quality 100.0 %
         Test CRC 1255DAE8
         Copy CRC 1255DAE8
         Copy OK

    Track 13

         Filename D:\CD\Deemo OST Vol.3\13. Myosotis.wav

         Pre-gap length  0:00:02.00

         Peak level 96.8 %
         Extraction speed 6.9 X
         Track quality 100.0 %
         Test CRC 053BC93A
         Copy CRC 053BC93A
         Copy OK

    Track 14

         Filename D:\CD\Deemo OST Vol.3\14. Cerebrite.wav

         Pre-gap length  0:00:02.00

         Peak level 97.3 %
         Extraction speed 7.1 X
         Track quality 100.0 %
         Test CRC 91F04233
         Copy CRC 91F04233
         Copy OK

    Track 15

         Filename D:\CD\Deemo OST Vol.3\15. A Turtle's Heart.wav

         Pre-gap length  0:00:02.00

         Peak level 96.9 %
         Extraction speed 6.0 X
         Track quality 99.9 %
         Test CRC 430C17EC
         Copy CRC 430C17EC
         Copy OK

    Track 16

         Filename D:\CD\Deemo OST Vol.3\16. Space Colony.wav

         Pre-gap length  0:00:02.00

         Peak level 96.6 %
         Extraction speed 7.6 X
         Track quality 100.0 %
         Test CRC 78DDF258
         Copy CRC 78DDF258
         Copy OK

    Track 17

         Filename D:\CD\Deemo OST Vol.3\17. Imagined Flight.wav

         Pre-gap length  0:00:02.00

         Peak level 97.1 %
         Extraction speed 8.0 X
         Track quality 100.0 %
         Test CRC 106F2731
         Copy CRC 106F2731
         Copy OK

    Track 18

         Filename D:\CD\Deemo OST Vol.3\18. Unidentified Flavourful Object.wav

         Pre-gap length  0:00:02.00

         Peak level 96.6 %
         Extraction speed 7.0 X
         Track quality 99.9 %
         Test CRC 6E2C70EF
         Copy CRC 6E2C70EF
         Copy OK

    Track 19

         Filename D:\CD\Deemo OST Vol.3\19. Lune.wav

         Pre-gap length  0:00:02.00

         Peak level 97.5 %
         Extraction speed 7.6 X
         Track quality 100.0 %
         Test CRC A0B727DB
         Copy CRC A0B727DB
         Copy OK

    Track 20

         Filename D:\CD\Deemo OST Vol.3\20. Angelic Sphere.wav

         Pre-gap length  0:00:02.00

         Peak level 100.0 %
         Extraction speed 6.0 X
         Track quality 99.9 %
         Test CRC AD3F22E5
         Copy CRC AD3F22E5
         Copy OK

    Track 21

         Filename D:\CD\Deemo OST Vol.3\21. Snowflakes.wav

         Pre-gap length  0:00:02.00

         Peak level 99.9 %
         Extraction speed 7.7 X
         Track quality 100.0 %
         Test CRC 38E5E92A
         Copy CRC 38E5E92A
         Copy OK

    Track 22

         Filename D:\CD\Deemo OST Vol.3\22. Reverence (Deemo ver).wav

         Pre-gap length  0:00:02.00

         Peak level 96.8 %
         Extraction speed 8.5 X
         Track quality 100.0 %
         Test CRC 380A18A7
         Copy CRC 380A18A7
         Copy OK

    Track 23

         Filename D:\CD\Deemo OST Vol.3\23. Veritas.wav

         Pre-gap length  0:00:02.00

         Peak level 99.1 %
         Extraction speed 8.4 X
         Track quality 100.0 %
         Test CRC A98A2FED
         Copy CRC A98A2FED
         Copy OK

    Track 24

         Filename D:\CD\Deemo OST Vol.3\24. Leviathan.wav

         Pre-gap length  0:00:02.00

         Peak level 97.3 %
         Extraction speed 8.1 X
         Track quality 100.0 %
         Test CRC 72FD4A92
         Copy CRC 72FD4A92
         Copy OK

    Track 25

         Filename D:\CD\Deemo OST Vol.3\25. ANiMA.wav

         Pre-gap length  0:00:02.00

         Peak level 96.6 %
         Extraction speed 5.8 X
         Track quality 99.9 %
         Test CRC 8B54EFC0
         Copy CRC 8B54EFC0
         Copy OK

    No errors occurred

    End of status report

    ---- CUETools DB Plugin V2.1.6

    [CTDB TOCID: KqtcHoRH8Qnjukmsmpxd5tVa9y8-] found
    Submit result: KqtcHoRH8Qnjukmsmpxd5tVa9y8- has been confirmed
    Track | CTDB Status
      1   | (10/10) Accurately ripped
      2   | (10/10) Accurately ripped
      3   | (10/10) Accurately ripped
      4   | (10/10) Accurately ripped
      5   | (10/10) Accurately ripped
      6   | (10/10) Accurately ripped
      7   | (10/10) Accurately ripped
      8   | (10/10) Accurately ripped
      9   | (10/10) Accurately ripped
    10   | (10/10) Accurately ripped
    11   | (10/10) Accurately ripped
    12   | (10/10) Accurately ripped
    13   | (10/10) Accurately ripped
    14   | (10/10) Accurately ripped
    15   | (10/10) Accurately ripped
    16   | (10/10) Accurately ripped
    17   | (10/10) Accurately ripped
    18   | (10/10) Accurately ripped
    19   | (10/10) Accurately ripped
    20   | (10/10) Accurately ripped
    21   | (10/10) Accurately ripped
    22   | (10/10) Accurately ripped
    23   | (10/10) Accurately ripped
    24   | (10/10) Accurately ripped
    25   | (10/10) Accurately ripped


    ==== Log checksum 7F8E17C176B7FD3BF3220CB64415E3A928A7AE6AB0D60EEE35819AC5A78E81C4 ====


    游客本帖隐藏的内容需要积分高于 999999 才可浏览,您当前积分为 0 (If you want to read the hidden contents,you should have 999999 “积分”,but you just have 0 “积分”) (もしあなたがこの隠れて内容を読みたいなら、“积分” 0 だけです。)

    【天使币 & 积分 简单获取教程】



    jerry60328x

    LEVEL 2 升华
    UID:772963
    精华:0
    主题:12
    帖子:305
    威望:1208
    天使币:9346
    宣传度:156
    天然°:227
    腹黑°:224
    精灵:9
    红玫瑰:0
    白蔷薇:0
    阅读权限:30
    注册时间:2013-8-8
    状态: 在线

  • TA的每日心情
    开心

    签到天数: 143天[LV.7]常住居民III

  • jerry60328x 发表于 2018-8-10 17:29:43 |显示全部楼层
    升级
    感谢楼主分享Deemo最新专辑

    使用道具 举报

    yck555

    梦幻天使
    UID:1089955
    精华:0
    主题:0
    帖子:159
    威望:423
    天使币:1341
    宣传度:59
    天然°:10
    腹黑°:0
    精灵:0
    红玫瑰:0
    白蔷薇:0
    阅读权限:130
    注册时间:2014-9-25
    状态: 不在线

  • TA的每日心情
    开心

    签到天数: 117天[LV.7]常住居民III

  • yck555 发表于 2018-8-10 18:17:01 |显示全部楼层
    谢楼主分享

    使用道具 举报

    setokaname

    梦幻天使
    UID:1623338
    精华:0
    主题:21
    帖子:668
    威望:1818
    天使币:14178
    宣传度:250
    天然°:180
    腹黑°:180
    精灵:9
    红玫瑰:0
    白蔷薇:0
    阅读权限:130
    注册时间:2017-2-18
    状态: 不在线

  • TA的每日心情
    无聊

    签到天数: 476天[LV.Master]伴坛终老

  • setokaname 发表于 2018-8-10 18:33:36 |显示全部楼层
    谢谢分享

    使用道具 举报

    xup6gl4zj3
    ffggj

    梦幻天使
    UID:1645548
    精华:0
    主题:1
    帖子:605
    威望:1039
    天使币:3113
    宣传度:50
    天然°:0
    腹黑°:0
    精灵:0
    红玫瑰:0
    白蔷薇:0
    阅读权限:130
    注册时间:2017-5-17
    来自:香港
    状态: 在线

  • TA的每日心情
    难过

    签到天数: 451天[LV.Master]伴坛终老

  • xup6gl4zj3 发表于 2018-8-10 18:40:12 来自手机 |显示全部楼层
    謝謝分享哦哦哦

    使用道具 举报

    kkkauto
    kauton

    LEVEL 3 POWER
    UID:1352457
    精华:0
    主题:1
    帖子:1302
    威望:1489
    天使币:1774
    宣传度:5
    天然°:0
    腹黑°:0
    精灵:0
    红玫瑰:0
    白蔷薇:0
    阅读权限:30
    注册时间:2015-10-24
    来自:Japan
    状态: 不在线

  • TA的每日心情
    开心

    签到天数: 1073天[LV.Master]伴坛终老

  • kkkauto 发表于 2018-8-10 18:43:19 |显示全部楼层
    Great thank you!

    使用道具 举报

    billywtm
    billywtm

    梦幻天使
    UID:838487
    精华:0
    主题:1
    帖子:317
    威望:1093
    天使币:2370
    宣传度:151
    天然°:50
    腹黑°:50
    精灵:0
    红玫瑰:0
    白蔷薇:0
    阅读权限:130
    注册时间:2013-10-26
    状态: 不在线

  • TA的每日心情
    开心

    签到天数: 123天[LV.7]常住居民III

  • billywtm 发表于 2018-8-10 20:16:21 |显示全部楼层
    thanks for your share!!

    使用道具 举报

    ga006435
    Asriel

    梦幻天使
    UID:18900
    头衔:紳士王
    精华:0
    主题:9
    帖子:1718
    威望:2511
    天使币:6281
    宣传度:113
    天然°:35
    腹黑°:39
    精灵:2
    红玫瑰:0
    白蔷薇:0
    阅读权限:130
    注册时间:2011-3-1
    来自:Hentai星
    状态: 不在线

  • TA的每日心情
    擦汗

    签到天数: 1083天[LV.Master]伴坛终老

  • ga006435 发表于 2018-8-10 20:25:36 |显示全部楼层
    先來收喔-.-

    等等怕不見了XDDD

    使用道具 举报

    danh2121

    梦幻天使
    UID:1500542
    精华:0
    主题:183
    帖子:2937
    威望:3962
    天使币:52498
    宣传度:352
    天然°:496
    腹黑°:481
    精灵:2
    红玫瑰:0
    白蔷薇:0
    阅读权限:130
    注册时间:2016-5-12
    状态: 不在线

  • TA的每日心情
    开心

    签到天数: 193天[LV.8]以坛为家I

  • danh2121 发表于 2018-8-10 20:43:40 |显示全部楼层
    太好了 终于等到了

    使用道具 举报

    kwankin

    梦幻天使
    UID:441061
    精华:0
    主题:1
    帖子:41
    威望:659
    天使币:1365
    宣传度:113
    天然°:50
    腹黑°:50
    精灵:1
    红玫瑰:0
    白蔷薇:0
    阅读权限:130
    注册时间:2012-9-20
    状态: 不在线

  • TA的每日心情
    无聊

    签到天数: 2天[LV.1]初来乍到

  • kwankin 发表于 2018-8-10 21:26:21 |显示全部楼层
    感謝分享

    使用道具 举报

    您需要登录后才可以回帖 登录 | 注册

    加天使同城QQ群,有威望奖励~

    Archiver|WAP| 天使动漫论坛   

    声明:本站所有内容资源均来自网络&网友分享,仅供学习试用。如侵犯您的权益请告知,将会第一时间删除。广告联系我的邮箱

    GMT+8, 2018-12-15 12:29 , Processed in 0.140400 second(s), 58 queries , Gzip On, Memcache On.

    Powered by Discuz! TSDM SP

    © 2010-2014 Style by chibimiku@TSDM

    回顶部