背景音乐

天使动漫论坛 - 梦开始的地方

查看: 145|回复: 3

[动漫音乐] [度盤][EAC][自購]CLANNAD-クラナド- ORIGINAL SOUNDTRACK[WAV+LOG] [复制链接]

凛冬poi
凛冬poi

LEVEL 2 升华
UID:1755728
精华:0
主题:29
帖子:225
威望:1679
天使币:5059
宣传度:474
天然°:563
腹黑°:563
精灵:29
红玫瑰:0
白蔷薇:0
阅读权限:35
注册时间:2018-7-27
状态: 不在线

  • TA的每日心情
    开心

    签到天数: 79天[LV.6]常住居民II

  • 凛冬poi 发表于 2018-8-10 21:08:25 |显示全部楼层



    CLANNAD的原聲合集,一共有三張碟
    所有經典BGM都包含在内了~

    除音頻文件外,附帶了包含所有文件並添加了5%恢復記錄的壓縮包 各位自行取用
    如有失效請恢復本帖補檔  我看到后會及時更新XD


    Disc 1
    1 汐
    2 幻想
    3 メグメル
    4 町, 時の流れ, 人
    5 渚
    6 それは風のように
    7 Étude pour les petites supercordes
    8 は~りぃすたーふぃっしゅ
    9 彼女の本気
    10 資料室のお茶会
    11 東風
    12 田舎小径
    13 有意義な時間の過ごし方
    14 日々の遑
    15 ダム
    16 馬鹿ふたり
    17 灰燼に帰す
    18 存在
    19 月の位相
    20 無間
    Disc 2
    1 雪野原
    2 潮鳴り
    3 潮鳴りⅡ
    4 TOE
    5 同じ高みへ
    6 願いが叶う場所
    7 空に光る
    8 -影二つ-
    9 白詰草
    10 遥かな年月-piano-
    11 夏時間
    12 遥かな年月
    13 カントリートレイン
    14 願いが叶う場所Ⅱ
    15 Ana
    16 渚~坂の下の別れ
    17 小さなてのひら
    Disc 3
    1 幻想II
    2 東風 -afternoon-
    3 東風 -tempo up-
    4 東風 -piano-
    5 有意義な時間の過ごし方 -guitar-
    6 有意義な時間の過ごし方 -sax-
    7 存在 -e.piano-
    8 存在 -piano-
    9 メグメル -cockool mix- (full ver.)
    10 メグメル (short ver.)
    11 メグメル -cockool mix- (short ver.)
    12 -影二つ- (short ver.)
    13 Ana (short ver.)
    14 Ana (full ver.)
    15 メグメル (off vocal ver.)
    16 小さな手のひら (off vocal ver.)
    17 -影二つ- (off vocal ver.)
    18 未使用曲1
    19 未使用曲2



    Exact Audio Copy V1.0 beta 3 from 29. August 2011

    EAC 抓取日志文件从10. 八月 2018, 19:52

    - / CLANNAD-クラナド- ORIGINAL SOUNDTRACK

    使用驱动器  :HL-DT-STDVDRAM GUD0N   Adapter: 0  ID: 0

    读取模式      : 可靠Secure
    使用精确流     : 是
    清空音频缓存    : 否
    使用 C2 指示器 : 否

    读取偏移校正:               : 102
    读取 Lead-In 和 Lead-Out : 否
    用静音填充抓取中丢失偏移的采样       : 是
    去除首尾静音块               : 否
    在CRC 计算中使用了空样本       : 是
    已用接口                  : Win NT 及 2000 本地 Win32 接口
    间隙处理                  : 没检测到,因此追加到上一曲目

    所用输出模式: : 内部 WAV 函数
    样本格式    : 44.100 Hz; 16 Bit; 立体声


    已抓取 CD 的 TOC

         音轨 |    起始    |    长度    |  起始扇区  |  结束扇区  
        --------------------------------------------
          1 |  0:00.00 |  1:08.00 |      0 |   5099
          2 |  1:08.00 |  3:22.00 |   5100 |  20249
          3 |  4:30.00 |  4:52.00 |  20250 |  42149
          4 |  9:22.00 |  4:28.00 |  42150 |  62249
          5 | 13:50.00 |  4:10.00 |  62250 |  80999
          6 | 18:00.00 |  4:02.00 |  81000 |  99149
          7 | 22:02.00 |  4:50.00 |  99150 | 120899
          8 | 26:52.00 |  4:18.00 | 120900 | 140249
          9 | 31:10.00 |  4:06.00 | 140250 | 158699
         10 | 35:16.00 |  3:58.00 | 158700 | 176549
         11 | 39:14.00 |  3:32.00 | 176550 | 192449
         12 | 42:46.00 |  3:16.00 | 192450 | 207149
         13 | 46:02.00 |  3:20.00 | 207150 | 222149
         14 | 49:22.00 |  1:51.00 | 222150 | 230474
         15 | 51:13.00 |  4:56.00 | 230475 | 252674
         16 | 56:09.00 |  2:28.00 | 252675 | 263774
         17 | 58:37.00 |  3:40.00 | 263775 | 280274
         18 | 62:17.00 |  2:25.00 | 280275 | 291149
         19 | 64:42.00 |  3:52.00 | 291150 | 308549
         20 | 68:34.00 |  3:53.00 | 308550 | 326024


    音轨  1

         文件名 E:\CLANNAD-クラナド- ORIGINAL SOUNDTRACK\Disk1\汐.wav

         峰值电平 87.8 %
         抓取速度 4.6 X
         音轨质量 100.0 %
         复制 CRC 2DB404C3
         音轨在 AccurateRip 数据库中无记录
         复制成功

    音轨  2

         文件名 E:\CLANNAD-クラナド- ORIGINAL SOUNDTRACK\Disk1\幻想.wav

         峰值电平 100.0 %
         抓取速度 5.3 X
         音轨质量 100.0 %
         复制 CRC 1F743220
         音轨在 AccurateRip 数据库中无记录
         复制成功

    音轨  3

         文件名 E:\CLANNAD-クラナド- ORIGINAL SOUNDTRACK\Disk1\メグメル.wav

         峰值电平 100.0 %
         抓取速度 5.8 X
         音轨质量 100.0 %
         复制 CRC B3631943
         音轨在 AccurateRip 数据库中无记录
         复制成功

    音轨  4

         文件名 E:\CLANNAD-クラナド- ORIGINAL SOUNDTRACK\Disk1\町, 時の流れ, 人.wav

         峰值电平 100.0 %
         抓取速度 6.5 X
         音轨质量 100.0 %
         复制 CRC 6D6F0AD8
         音轨在 AccurateRip 数据库中无记录
         复制成功

    音轨  5

         文件名 E:\CLANNAD-クラナド- ORIGINAL SOUNDTRACK\Disk1\渚.wav

         峰值电平 100.0 %
         抓取速度 6.4 X
         音轨质量 99.9 %
         复制 CRC 897C8865
         音轨在 AccurateRip 数据库中无记录
         复制成功

    音轨  6

         文件名 E:\CLANNAD-クラナド- ORIGINAL SOUNDTRACK\Disk1\それは風のように.wav

         峰值电平 100.0 %
         抓取速度 6.8 X
         音轨质量 99.9 %
         复制 CRC EAF00FB7
         音轨在 AccurateRip 数据库中无记录
         复制成功

    音轨  7

         文件名 E:\CLANNAD-クラナド- ORIGINAL SOUNDTRACK\Disk1\Étude pour les petites supercordes.wav

         峰值电平 71.8 %
         抓取速度 7.6 X
         音轨质量 100.0 %
         复制 CRC 3C709F5B
         音轨在 AccurateRip 数据库中无记录
         复制成功

    音轨  8

         文件名 E:\CLANNAD-クラナド- ORIGINAL SOUNDTRACK\Disk1\は~りぃすたーふぃっしゅ.wav

         峰值电平 100.0 %
         抓取速度 8.1 X
         音轨质量 100.0 %
         复制 CRC 54642CB5
         音轨在 AccurateRip 数据库中无记录
         复制成功

    音轨  9

         文件名 E:\CLANNAD-クラナド- ORIGINAL SOUNDTRACK\Disk1\彼女の本気.wav

         峰值电平 88.8 %
         抓取速度 7.8 X
         音轨质量 99.9 %
         复制 CRC A6F4D3E8
         音轨在 AccurateRip 数据库中无记录
         复制成功

    音轨 10

         文件名 E:\CLANNAD-クラナド- ORIGINAL SOUNDTRACK\Disk1\資料室のお茶会.wav

         峰值电平 79.7 %
         抓取速度 8.6 X
         音轨质量 100.0 %
         复制 CRC A1030CCF
         音轨在 AccurateRip 数据库中无记录
         复制成功

    音轨 11

         文件名 E:\CLANNAD-クラナド- ORIGINAL SOUNDTRACK\Disk1\東風.wav

         峰值电平 98.8 %
         抓取速度 8.9 X
         音轨质量 100.0 %
         复制 CRC 34C93FC6
         音轨在 AccurateRip 数据库中无记录
         复制成功

    音轨 12

         文件名 E:\CLANNAD-クラナド- ORIGINAL SOUNDTRACK\Disk1\田舎小径.wav

         峰值电平 100.0 %
         抓取速度 9.4 X
         音轨质量 100.0 %
         复制 CRC E6E4A5C1
         音轨在 AccurateRip 数据库中无记录
         复制成功

    音轨 13

         文件名 E:\CLANNAD-クラナド- ORIGINAL SOUNDTRACK\Disk1\有意義な時間の過ごし方.wav

         峰值电平 100.0 %
         抓取速度 9.3 X
         音轨质量 100.0 %
         复制 CRC C5F328CF
         音轨在 AccurateRip 数据库中无记录
         复制成功

    音轨 14

         文件名 E:\CLANNAD-クラナド- ORIGINAL SOUNDTRACK\Disk1\日々の遑.wav

         峰值电平 93.1 %
         抓取速度 9.8 X
         音轨质量 100.0 %
         复制 CRC F728062A
         音轨在 AccurateRip 数据库中无记录
         复制成功

    音轨 15

         文件名 E:\CLANNAD-クラナド- ORIGINAL SOUNDTRACK\Disk1\ダム.wav

         峰值电平 88.7 %
         抓取速度 9.8 X
         音轨质量 100.0 %
         复制 CRC 6B753595
         音轨在 AccurateRip 数据库中无记录
         复制成功

    音轨 16

         文件名 E:\CLANNAD-クラナド- ORIGINAL SOUNDTRACK\Disk1\馬鹿ふたり.wav

         峰值电平 100.0 %
         抓取速度 9.7 X
         音轨质量 100.0 %
         复制 CRC 8460FE5C
         音轨在 AccurateRip 数据库中无记录
         复制成功

    音轨 17

         文件名 E:\CLANNAD-クラナド- ORIGINAL SOUNDTRACK\Disk1\灰燼に帰す.wav

         峰值电平 100.0 %
         抓取速度 10.1 X
         音轨质量 100.0 %
         复制 CRC E923E46E
         音轨在 AccurateRip 数据库中无记录
         复制成功

    音轨 18

         文件名 E:\CLANNAD-クラナド- ORIGINAL SOUNDTRACK\Disk1\存在.wav

         峰值电平 93.5 %
         抓取速度 10.1 X
         音轨质量 100.0 %
         复制 CRC 284A1E9F
         音轨在 AccurateRip 数据库中无记录
         复制成功

    音轨 19

         文件名 E:\CLANNAD-クラナド- ORIGINAL SOUNDTRACK\Disk1\月の位相.wav

         峰值电平 100.0 %
         抓取速度 10.6 X
         音轨质量 100.0 %
         复制 CRC FED3098C
         音轨在 AccurateRip 数据库中无记录
         复制成功

    音轨 20

         文件名 E:\CLANNAD-クラナド- ORIGINAL SOUNDTRACK\Disk1\無間.wav

         峰值电平 100.0 %
         抓取速度 10.7 X
         音轨质量 100.0 %
         复制 CRC 3E132650
         音轨在 AccurateRip 数据库中无记录
         复制成功


    没有任何音轨在 AccurateRip 数据库中有记录

    没有错误发生

    状态报告结尾

    ==== 记录校验日志 37AC56054F41CCF443A9A6FB86E5C98737B5A9E936D56F20F657230585DEBB49 ====




    Exact Audio Copy V1.0 beta 3 from 29. August 2011

    EAC 抓取日志文件从10. 八月 2018, 20:09

    - / CLANNAD-クラナド- ORIGINAL SOUNDTRACK

    使用驱动器  :HL-DT-STDVDRAM GUD0N   Adapter: 0  ID: 0

    读取模式      : 可靠Secure
    使用精确流     : 是
    清空音频缓存    : 否
    使用 C2 指示器 : 否

    读取偏移校正:               : 102
    读取 Lead-In 和 Lead-Out : 否
    用静音填充抓取中丢失偏移的采样       : 是
    去除首尾静音块               : 否
    在CRC 计算中使用了空样本       : 是
    已用接口                  : Win NT 及 2000 本地 Win32 接口
    间隙处理                  : 没检测到,因此追加到上一曲目

    所用输出模式: : 内部 WAV 函数
    样本格式    : 44.100 Hz; 16 Bit; 立体声


    已抓取 CD 的 TOC

         音轨 |    起始    |    长度    |  起始扇区  |  结束扇区  
        --------------------------------------------
          1 |  0:00.00 |  5:11.00 |      0 |  23324
          2 |  5:11.00 |  2:37.00 |  23325 |  35099
          3 |  7:48.00 |  4:15.00 |  35100 |  54224
          4 | 12:03.00 |  2:44.00 |  54225 |  66524
          5 | 14:47.00 |  1:59.00 |  66525 |  75449
          6 | 16:46.00 |  2:49.00 |  75450 |  88124
          7 | 19:35.00 |  5:08.00 |  88125 | 111224
          8 | 24:43.00 |  5:37.00 | 111225 | 136499
          9 | 30:20.00 |  3:44.00 | 136500 | 153299
         10 | 34:04.00 |  1:56.00 | 153300 | 161999
         11 | 36:00.00 |  2:44.00 | 162000 | 174299
         12 | 38:44.00 |  4:34.15 | 174300 | 194864
         13 | 43:18.15 |  3:54.00 | 194865 | 212414
         14 | 47:12.15 |  4:08.00 | 212415 | 231014
         15 | 51:20.15 |  5:46.00 | 231015 | 256964
         16 | 57:06.15 |  3:54.00 | 256965 | 274514
         17 | 61:00.15 |  4:45.00 | 274515 | 295889


    音轨  1

         文件名 E:\CLANNAD-クラナド- ORIGINAL SOUNDTRACK\Disk2\雪野原.wav

         峰值电平 100.0 %
         抓取速度 5.1 X
         音轨质量 100.0 %
         复制 CRC 54236E50
         音轨在 AccurateRip 数据库中无记录
         复制成功

    音轨  2

         文件名 E:\CLANNAD-クラナド- ORIGINAL SOUNDTRACK\Disk2\潮鳴り.wav

         峰值电平 100.0 %
         抓取速度 5.2 X
         音轨质量 99.9 %
         复制 CRC 53BEAE1A
         音轨在 AccurateRip 数据库中无记录
         复制成功

    音轨  3

         文件名 E:\CLANNAD-クラナド- ORIGINAL SOUNDTRACK\Disk2\潮鳴りⅡ.wav

         峰值电平 80.5 %
         抓取速度 6.2 X
         音轨质量 100.0 %
         复制 CRC 0BC5EDA2
         音轨在 AccurateRip 数据库中无记录
         复制成功

    音轨  4

         文件名 E:\CLANNAD-クラナド- ORIGINAL SOUNDTRACK\Disk2\TOE.wav

         峰值电平 100.0 %
         抓取速度 5.9 X
         音轨质量 99.9 %
         复制 CRC E56D611C
         音轨在 AccurateRip 数据库中无记录
         复制成功

    音轨  5

         文件名 E:\CLANNAD-クラナド- ORIGINAL SOUNDTRACK\Disk2\同じ高みへ.wav

         峰值电平 95.9 %
         抓取速度 6.8 X
         音轨质量 100.0 %
         复制 CRC 5F068950
         音轨在 AccurateRip 数据库中无记录
         复制成功

    音轨  6

         文件名 E:\CLANNAD-クラナド- ORIGINAL SOUNDTRACK\Disk2\願いが叶う場所.wav

         峰值电平 35.0 %
         抓取速度 6.3 X
         音轨质量 99.9 %
         复制 CRC 1B50C060
         音轨在 AccurateRip 数据库中无记录
         复制成功

    音轨  7

         文件名 E:\CLANNAD-クラナド- ORIGINAL SOUNDTRACK\Disk2\空に光る.wav

         峰值电平 100.0 %
         抓取速度 7.3 X
         音轨质量 100.0 %
         复制 CRC D7F02EDE
         音轨在 AccurateRip 数据库中无记录
         复制成功

    音轨  8

         文件名 E:\CLANNAD-クラナド- ORIGINAL SOUNDTRACK\Disk2\-影二つ-.wav

         峰值电平 100.0 %
         抓取速度 7.5 X
         音轨质量 99.9 %
         复制 CRC 52DCF65F
         音轨在 AccurateRip 数据库中无记录
         复制成功

    音轨  9

         文件名 E:\CLANNAD-クラナド- ORIGINAL SOUNDTRACK\Disk2\白詰草.wav

         峰值电平 92.0 %
         抓取速度 8.1 X
         音轨质量 100.0 %
         复制 CRC 95E2B601
         音轨在 AccurateRip 数据库中无记录
         复制成功

    音轨 10

         文件名 E:\CLANNAD-クラナド- ORIGINAL SOUNDTRACK\Disk2\遥かな年月-piano-.wav

         峰值电平 79.4 %
         抓取速度 8.6 X
         音轨质量 100.0 %
         复制 CRC A0C976A2
         音轨在 AccurateRip 数据库中无记录
         复制成功

    音轨 11

         文件名 E:\CLANNAD-クラナド- ORIGINAL SOUNDTRACK\Disk2\夏時間.wav

         峰值电平 83.1 %
         抓取速度 7.7 X
         音轨质量 99.9 %
         复制 CRC A467E99B
         音轨在 AccurateRip 数据库中无记录
         复制成功

    音轨 12

         文件名 E:\CLANNAD-クラナド- ORIGINAL SOUNDTRACK\Disk2\遥かな年月.wav

         峰值电平 100.0 %
         抓取速度 8.4 X
         音轨质量 99.9 %
         复制 CRC B3B8CEF9
         音轨在 AccurateRip 数据库中无记录
         复制成功

    音轨 13

         文件名 E:\CLANNAD-クラナド- ORIGINAL SOUNDTRACK\Disk2\カントリートレイン.wav

         峰值电平 100.0 %
         抓取速度 9.1 X
         音轨质量 100.0 %
         复制 CRC 4ECA91D4
         音轨在 AccurateRip 数据库中无记录
         复制成功

    音轨 14

         文件名 E:\CLANNAD-クラナド- ORIGINAL SOUNDTRACK\Disk2\願いが叶う場所Ⅱ.wav

         峰值电平 100.0 %
         抓取速度 8.8 X
         音轨质量 99.9 %
         复制 CRC C4CF28C9
         音轨在 AccurateRip 数据库中无记录
         复制成功

    音轨 15

         文件名 E:\CLANNAD-クラナド- ORIGINAL SOUNDTRACK\Disk2\Ana.wav

         峰值电平 98.3 %
         抓取速度 10.0 X
         音轨质量 100.0 %
         复制 CRC A0FEB250
         音轨在 AccurateRip 数据库中无记录
         复制成功

    音轨 16

         文件名 E:\CLANNAD-クラナド- ORIGINAL SOUNDTRACK\Disk2\渚~坂の下の別れ.wav

         峰值电平 100.0 %
         抓取速度 9.9 X
         音轨质量 100.0 %
         复制 CRC AF466B68
         音轨在 AccurateRip 数据库中无记录
         复制成功

    音轨 17

         文件名 E:\CLANNAD-クラナド- ORIGINAL SOUNDTRACK\Disk2\小さなてのひら.wav

         峰值电平 100.0 %
         抓取速度 10.7 X
         音轨质量 100.0 %
         复制 CRC 1907F70B
         音轨在 AccurateRip 数据库中无记录
         复制成功


    没有任何音轨在 AccurateRip 数据库中有记录

    没有错误发生

    状态报告结尾

    ==== 记录校验日志 DD60D1B68122C98C8325F3DF93DC3C09053A6A1546F9311DF8DC58E87AC848D9 ====




    Exact Audio Copy V1.0 beta 3 from 29. August 2011

    EAC 抓取日志文件从10. 八月 2018, 20:23

    - / CLANNAD-クラナド- ORIGINAL SOUNDTRACK

    使用驱动器  :HL-DT-STDVDRAM GUD0N   Adapter: 0  ID: 0

    读取模式      : 可靠Secure
    使用精确流     : 是
    清空音频缓存    : 否
    使用 C2 指示器 : 否

    读取偏移校正:               : 102
    读取 Lead-In 和 Lead-Out : 否
    用静音填充抓取中丢失偏移的采样       : 是
    去除首尾静音块               : 否
    在CRC 计算中使用了空样本       : 是
    已用接口                  : Win NT 及 2000 本地 Win32 接口
    间隙处理                  : 没检测到,因此追加到上一曲目

    所用输出模式: : 内部 WAV 函数
    样本格式    : 44.100 Hz; 16 Bit; 立体声


    已抓取 CD 的 TOC

         音轨 |    起始    |    长度    |  起始扇区  |  结束扇区  
        --------------------------------------------
          1 |  0:00.00 |  1:54.00 |      0 |   8549
          2 |  1:54.00 |  3:33.00 |   8550 |  24524
          3 |  5:27.00 |  3:04.00 |  24525 |  38324
          4 |  8:31.00 |  1:45.00 |  38325 |  46199
          5 | 10:16.00 |  3:21.00 |  46200 |  61274
          6 | 13:37.00 |  3:22.00 |  61275 |  76424
          7 | 16:59.00 |  2:24.00 |  76425 |  87224
          8 | 19:23.00 |  2:27.00 |  87225 |  98249
          9 | 21:50.00 |  4:27.74 |  98250 | 118348
         10 | 26:17.74 |  2:40.00 | 118349 | 130348
         11 | 28:57.74 |  2:39.00 | 130349 | 142273
         12 | 31:36.74 |  2:34.00 | 142274 | 153823
         13 | 34:10.74 |  5:25.00 | 153824 | 178198
         14 | 39:35.74 |  8:24.00 | 178199 | 215998
         15 | 47:59.74 |  4:51.00 | 215999 | 237823
         16 | 52:50.74 |  4:40.00 | 237824 | 258823
         17 | 57:30.74 |  5:36.00 | 258824 | 284023
         18 | 63:06.74 |  3:31.00 | 284024 | 299848
         19 | 66:37.74 |  2:22.00 | 299849 | 310498


    音轨  1

         文件名 E:\CLANNAD-クラナド- ORIGINAL SOUNDTRACK\Disk3\幻想II.wav

         峰值电平 48.6 %
         抓取速度 5.0 X
         音轨质量 100.0 %
         复制 CRC A2FF855E
         精确校准地抓取  28)  [C334BFBB]  (AR v2)
         复制成功

    音轨  2

         文件名 E:\CLANNAD-クラナド- ORIGINAL SOUNDTRACK\Disk3\東風 -afternoon-.wav

         峰值电平 100.0 %
         抓取速度 5.2 X
         音轨质量 100.0 %
         复制 CRC 7A2F571E
         精确校准地抓取  27)  [9BB78884]  (AR v2)
         复制成功

    音轨  3

         文件名 E:\CLANNAD-クラナド- ORIGINAL SOUNDTRACK\Disk3\東風 -tempo up-.wav

         峰值电平 100.0 %
         抓取速度 5.8 X
         音轨质量 100.0 %
         复制 CRC C6E11CC0
         精确校准地抓取  27)  [FEEB0A78]  (AR v2)
         复制成功

    音轨  4

         文件名 E:\CLANNAD-クラナド- ORIGINAL SOUNDTRACK\Disk3\東風 -piano-.wav

         峰值电平 87.8 %
         抓取速度 6.1 X
         音轨质量 100.0 %
         复制 CRC 092B1685
         精确校准地抓取  27)  [E74A4444]  (AR v2)
         复制成功

    音轨  5

         文件名 E:\CLANNAD-クラナド- ORIGINAL SOUNDTRACK\Disk3\有意義な時間の過ごし方 -guitar-.wav

         峰值电平 100.0 %
         抓取速度 6.2 X
         音轨质量 100.0 %
         复制 CRC D2ED162A
         精确校准地抓取  27)  [3A09405C]  (AR v2)
         复制成功

    音轨  6

         文件名 E:\CLANNAD-クラナド- ORIGINAL SOUNDTRACK\Disk3\有意義な時間の過ごし方 -sax-.wav

         峰值电平 100.0 %
         抓取速度 6.6 X
         音轨质量 100.0 %
         复制 CRC 9A0AE698
         精确校准地抓取  27)  [9E254BDE]  (AR v2)
         复制成功

    音轨  7

         文件名 E:\CLANNAD-クラナド- ORIGINAL SOUNDTRACK\Disk3\存在 -e.piano-.wav

         峰值电平 88.5 %
         抓取速度 6.7 X
         音轨质量 100.0 %
         复制 CRC 5607F30A
         精确校准地抓取  28)  [C61C2A90]  (AR v2)
         复制成功

    音轨  8

         文件名 E:\CLANNAD-クラナド- ORIGINAL SOUNDTRACK\Disk3\存在 -piano-.wav

         峰值电平 90.4 %
         抓取速度 6.9 X
         音轨质量 100.0 %
         复制 CRC 7E73F380
         精确校准地抓取  27)  [72990ADA]  (AR v2)
         复制成功

    音轨  9

         文件名 E:\CLANNAD-クラナド- ORIGINAL SOUNDTRACK\Disk3\メグメル -cockool mix- (full ver.).wav

         峰值电平 100.0 %
         抓取速度 7.6 X
         音轨质量 100.0 %
         复制 CRC 5D54BD97
         精确校准地抓取  28)  [C5F6A23F]  (AR v2)
         复制成功

    音轨 10

         文件名 E:\CLANNAD-クラナド- ORIGINAL SOUNDTRACK\Disk3\メグメル (short ver.).wav

         峰值电平 100.0 %
         抓取速度 7.0 X
         音轨质量 99.9 %
         复制 CRC A52C677D
         精确校准地抓取  27)  [11396154]  (AR v2)
         复制成功

    音轨 11

         文件名 E:\CLANNAD-クラナド- ORIGINAL SOUNDTRACK\Disk3\メグメル -cockool mix- (short ver.).wav

         峰值电平 100.0 %
         抓取速度 7.2 X
         音轨质量 99.9 %
         复制 CRC 34901CDE
         精确校准地抓取  27)  [A84E17A9]  (AR v2)
         复制成功

    音轨 12

         文件名 E:\CLANNAD-クラナド- ORIGINAL SOUNDTRACK\Disk3\-影二つ- (short ver.).wav

         峰值电平 100.0 %
         抓取速度 7.3 X
         音轨质量 99.9 %
         复制 CRC 7B3FBCDE
         精确校准地抓取  27)  [1940838D]  (AR v2)
         复制成功

    音轨 13

         文件名 E:\CLANNAD-クラナド- ORIGINAL SOUNDTRACK\Disk3\Ana (short ver.).wav

         峰值电平 96.8 %
         抓取速度 8.2 X
         音轨质量 99.9 %
         复制 CRC CA60E3E7
         精确校准地抓取  27)  [FE31C9DB]  (AR v2)
         复制成功

    音轨 14

         文件名 E:\CLANNAD-クラナド- ORIGINAL SOUNDTRACK\Disk3\Ana (full ver.).wav

         峰值电平 98.5 %
         抓取速度 8.8 X
         音轨质量 99.9 %
         复制 CRC E43FD7C8
         精确校准地抓取  28)  [F932BA65]  (AR v2)
         复制成功

    音轨 15

         文件名 E:\CLANNAD-クラナド- ORIGINAL SOUNDTRACK\Disk3\メグメル (off vocal ver.).wav

         峰值电平 100.0 %
         抓取速度 9.5 X
         音轨质量 100.0 %
         复制 CRC 51541A04
         精确校准地抓取  27)  [93175174]  (AR v2)
         复制成功

    音轨 16

         文件名 E:\CLANNAD-クラナド- ORIGINAL SOUNDTRACK\Disk3\小さな手のひら (off vocal ver.).wav

         峰值电平 100.0 %
         抓取速度 10.1 X
         音轨质量 100.0 %
         复制 CRC 69AB3A03
         精确校准地抓取  27)  [D2C33522]  (AR v2)
         复制成功

    音轨 17

         文件名 E:\CLANNAD-クラナド- ORIGINAL SOUNDTRACK\Disk3\-影二つ- (off vocal ver.).wav

         峰值电平 100.0 %
         抓取速度 9.7 X
         音轨质量 99.9 %
         复制 CRC A11C0015
         精确校准地抓取  27)  [B175D25F]  (AR v2)
         复制成功

    音轨 18

         文件名 E:\CLANNAD-クラナド- ORIGINAL SOUNDTRACK\Disk3\未使用曲1.wav

         峰值电平 100.0 %
         抓取速度 10.3 X
         音轨质量 100.0 %
         复制 CRC 1B8FF057
         精确校准地抓取  28)  [437D22CE]  (AR v2)
         复制成功

    音轨 19

         文件名 E:\CLANNAD-クラナド- ORIGINAL SOUNDTRACK\Disk3\未使用曲2.wav

         峰值电平 100.0 %
         抓取速度 10.2 X
         音轨质量 100.0 %
         复制 CRC 6A9B5B2E
         精确校准地抓取  28)  [4F6E16F1]  (AR v2)
         复制成功


    所有音轨精确校准抓取

    没有错误发生

    状态报告结尾

    ==== 记录校验日志 53C09F170914EE90C487CBFC0E74505FEA060565A0010820BECA4C3FD7A177A2 ====




    游客本帖隐藏的内容需要积分高于 999999 才可浏览,您当前积分为 0 (If you want to read the hidden contents,you should have 999999 “积分”,but you just have 0 “积分”) (もしあなたがこの隠れて内容を読みたいなら、“积分” 0 だけです。)

    【天使币 & 积分 简单获取教程】





    所有本人發佈的自購自抓禁止轉載
    僅限個人使用
    謝謝合作~

    个人索引
    水岛新房
    水岛新房

    LEVEL 2 升华
    UID:1333856
    精华:0
    主题:4
    帖子:610
    威望:1247
    天使币:4005
    宣传度:8
    天然°:48
    腹黑°:43
    精灵:0
    红玫瑰:0
    白蔷薇:0
    阅读权限:30
    注册时间:2015-9-15
    状态: 不在线

  • TA的每日心情
    慵懒

    签到天数: 369天[LV.Master]伴坛终老

  • 水岛新房 发表于 2018-8-14 19:08:45 |显示全部楼层
    升级
    感谢楼主分享

    使用道具 举报

    122242591
    skyforward

    梦幻天使
    UID:1743369
    精华:0
    主题:2
    帖子:59
    威望:658
    天使币:2911
    宣传度:99
    天然°:40
    腹黑°:30
    精灵:0
    红玫瑰:0
    白蔷薇:0
    阅读权限:130
    注册时间:2018-6-10
    来自:深圳
    状态: 不在线

  • TA的每日心情
    开心

    签到天数: 30天[LV.5]常住居民I

  • 122242591 发表于 2018-8-26 12:12:46 |显示全部楼层
    感谢楼主的分享~~

    使用道具 举报

    假面骑士拉哈

    LEVEL 1 断罪
    UID:1653576
    头衔:nico?
    精华:0
    主题:0
    帖子:196
    威望:258
    天使币:1863
    宣传度:0
    天然°:10
    腹黑°:10
    精灵:0
    红玫瑰:0
    白蔷薇:0
    阅读权限:15
    注册时间:2017-6-15
    状态: 不在线

  • TA的每日心情
    难过

    签到天数: 135天[LV.7]常住居民III

  • 假面骑士拉哈 发表于 2018-9-9 23:00:50 |显示全部楼层
    感谢分享

    使用道具 举报

    您需要登录后才可以回帖 登录 | 注册

    加天使同城QQ群,有威望奖励~

    Archiver|WAP| 天使动漫论坛   

    声明:本站所有内容资源均来自网络&网友分享,仅供学习试用。如侵犯您的权益请告知,将会第一时间删除。广告联系我的邮箱

    GMT+8, 2018-10-18 14:47 , Processed in 0.121007 second(s), 32 queries , Gzip On, Memcache On.

    Powered by Discuz! X2

    © 2001-2011 Comsenz Inc.

    回顶部