快捷导航

查看: 202|回复: 2

[动漫音乐] [度盤][EAC][自購][OP2 Single - LEVEL5-judgelight-][fripSide][WAV+LOG] [复制链接]

凛冬poi
凛冬poi

LEVEL 1 断罪
UID:1755728
精华:0
主题:19
帖子:93
威望:995
天使币:3741
宣传度:329
天然°:339
腹黑°:339
精灵:20
旺财币:0
阅读权限:25
注册时间:2018-7-27
状态: 不在线

  • TA的每日心情
    开心

    签到天数: 21天[LV.4]偶尔看看III

  • 凛冬poi 发表于 6 天前 |显示全部楼层
    升级



    とある科学の超電磁砲op2
    爽到不能自拔、

    除音頻文件外,附帶了包含所有文件並添加了5%恢復記錄的壓縮包 各位自行取用
    如有失效請恢復本帖補檔  我看到后會及時更新XD

    收錄曲目
    1 LEVEL5-judgelight-
    2 memory of snow
    3 LEVEL5-judgelight-(instrumental)
    4 memory of snow(instrumental)


    Exact Audio Copy V1.0 beta 3 from 29. August 2011

    EAC 抓取日志文件从10. 八月 2018, 20:57

    - / LEVEL5-judgelight

    使用驱动器  :HL-DT-STDVDRAM GUD0N   Adapter: 0  ID: 0

    读取模式      : 可靠Secure
    使用精确流     : 是
    清空音频缓存    : 否
    使用 C2 指示器 : 否

    读取偏移校正:               : 102
    读取 Lead-In 和 Lead-Out : 否
    用静音填充抓取中丢失偏移的采样       : 是
    去除首尾静音块               : 否
    在CRC 计算中使用了空样本       : 是
    已用接口                  : Win NT 及 2000 本地 Win32 接口
    间隙处理                  : 没检测到,因此追加到上一曲目

    所用输出模式: : 内部 WAV 函数
    样本格式    : 44.100 Hz; 16 Bit; 立体声


    已抓取 CD 的 TOC

         音轨 |    起始    |    长度    |  起始扇区  |  结束扇区  
        --------------------------------------------
          1 |  0:00.00 |  4:25.22 |      0 |  19896
          2 |  4:25.22 |  5:01.57 |  19897 |  42528
          3 |  9:27.04 |  4:25.22 |  42529 |  62425
          4 | 13:52.26 |  4:58.21 |  62426 |  84796


    音轨  1

         文件名 E:\LEVEL5-judgelight\LEVEL5-judgelight-.wav

         峰值电平 100.0 %
         抓取速度 4.6 X
         音轨质量 99.9 %
         复制 CRC D1A9CDC8
         音轨在 AccurateRip 数据库中无记录
         复制成功

    音轨  2

         文件名 E:\LEVEL5-judgelight\memory of snow.wav

         峰值电平 100.0 %
         抓取速度 5.2 X
         音轨质量 99.9 %
         复制 CRC 56766694
         音轨在 AccurateRip 数据库中无记录
         复制成功

    音轨  3

         文件名 E:\LEVEL5-judgelight\LEVEL5-judgelight-(instrumental).wav

         峰值电平 99.9 %
         抓取速度 5.7 X
         音轨质量 99.9 %
         复制 CRC A7BC5A1B
         音轨在 AccurateRip 数据库中无记录
         复制成功

    音轨  4

         文件名 E:\LEVEL5-judgelight\memory of snow(instrumental).wav

         峰值电平 97.5 %
         抓取速度 6.6 X
         音轨质量 100.0 %
         复制 CRC FD25D9AB
         音轨在 AccurateRip 数据库中无记录
         复制成功


    没有任何音轨在 AccurateRip 数据库中有记录

    没有错误发生

    状态报告结尾

    ==== 记录校验日志 AFBAA3BC2D302BB6B1808178FF999B7412FD108C288E7B5633F315397AE2E5EA ====




    游客本帖隐藏的内容需要积分高于 999999 才可浏览,您当前积分为 0 (If you want to read the hidden contents,you should have 999999 “积分”,but you just have 0 “积分”) (もしあなたがこの隠れて内容を読みたいなら、“积分” 0 だけです。)

    【天使币 & 积分 简单获取教程】








    所有本人發佈的自購自抓禁止轉載
    僅限個人使用
    謝謝合作~
    后藤喜一

    梦幻天使★
    UID:132116
    头衔:远征军第十八整编师两年期少佐攻 ...
    精华:0
    主题:3
    帖子:686
    威望:2157
    天使币:8447
    宣传度:300
    天然°:128
    腹黑°:128
    精灵:0
    旺财币:0
    阅读权限:135
    注册时间:2011-11-20
    状态: 在线

  • TA的每日心情
    奋斗

    签到天数: 207天[LV.9]以坛为家II

  • 后藤喜一 发表于 前天 05:34 |显示全部楼层
    感谢分享

    使用道具 举报

    yws456
    Jiaosh-教授

    梦幻天使
    UID:63284
    精华:0
    主题:1
    帖子:358
    威望:598
    天使币:583
    宣传度:54
    天然°:10
    腹黑°:0
    精灵:0
    旺财币:0
    阅读权限:130
    注册时间:2011-7-4
    来自:地球某处
    状态: 不在线

  • TA的每日心情
    开心

    签到天数: 132天[LV.7]常住居民III

  • yws456 发表于 前天 22:24 |显示全部楼层
    谢谢分享

    使用道具 举报

    您需要登录后才可以回帖 登录 | 注册

    加天使同城QQ群,有威望奖励~

    回顶部