快捷导航

查看: 469|回复: 1

[音乐推荐] [百度][自抓][EAC][180613]NHKドラマ10「デイジー・ラック」 オリジナル・サウンドトラック/Evan Call&日向萌(flac+cue+log) [复制链接]

gintama

LEVEL 8 执行者
UID:38474
头衔:現実という名の怪物と戦う者たち
精华:0
主题:36
帖子:6296
威望:5565
天使币:9116
宣传度:468
天然°:599
腹黑°:534
精灵:24
旺财币:0
阅读权限:60
注册时间:2011-4-23
状态: 不在线

  • TA的每日心情
    慵懒

    签到天数: 574天[LV.Master]伴坛终老

  • gintama 发表于 6 天前 |显示全部楼层
    升级


    CD (2018/6/13)
    ディスク枚数: 1
    レーベル: バップ
    収録時間: 78 分
    ASIN: B07CPRX24Z
    JAN: 4988021862028

    4月からのドラマ10は海野つなみさん原作!
    仕事に、恋に、30歳女子4人の幸せ探しが始まります!

    子どものころ「ひなぎく会」という名前をつけて集まっていた幼なじみの楓、薫、ミチル、えみの4人は、えみの結婚式で久しぶりに再会する。
    だが、まさにその日、楓は勤務する会社が突然倒産し、恋人からもふられ、30才目前で仕事も恋も失うことに。
    楓は子どものころの夢だったパン職人になることを決意。町のパン屋に職を得たものの、パン作りの道は険しく、先輩の職人・安芸の指導も容赦がない。
    楓の新しい人生の始まりとともに、高級エステサロンの仕事にまい進する薫、極貧のカバン職人のミチル、新婚のえみの日常も、それぞれに思いがけない展開を見せていく。
    4人の明日は晴れ、それとも雨? 金曜の夜10時が見逃せません!

    Evan Call/エバン・コール
    バークリー音楽大学にてフィルムスコアリングを学び、 卒業後2012年日本で作曲活動を開始。
    オーケストレーションを生かした壮大な楽曲から、メタルサウンドやエレクトリックサウンド、 民族音楽まで、幅広い楽曲作りを行う。
    自由な発想の元、新しい可能性を常に探究していく作曲家である。 英詞やコーラスも自身で手掛ける。
    [代表作]
    ドラマ「警視庁いきもの係」
    アニメ「ヴァイオレット・エヴァーガーデン」、アニメ「ハクメイとミコチ」

    ■日向 萌/Moe Hyuga
    1992年生まれ 埼玉県出身
    国立音楽大学作曲学科卒業。
    2歳よりクラシックピアノを習い始める。
    幼少から音楽に触れるうちに作曲家への道を志す。
    現在、CM・ドラマ・アニメなど映像音楽を中心に作曲・編曲を手掛ける。
    [代表作]
    ドラマ「孤食ロボット」、アニメ「シュタインズ・ゲートゼロ」

    Daisy Luck
    Everything Will Be Alright
    Like a Bossa
    Bim Bam Bom
    Yurayura Mind       
    Fancy Style
    Girl's Party
    Hey
    Daisy Luck (Mid Tempo ver.)
    Calling Me (Warm Piano ver.)
    White-collar Worker
    As Fun       
    Training Day
    No Way       
    Mistake       
    Boom Boom
    imao
    sry
    wtf       
    919
    Young Days
    I'm Alone (Simple ver.)
    Nasty Things
    Calling Me
    Daisy Luck (Sad Piano ver.)
    Move Back       
    I'm Alone
    Leap of Faith       
    Just With You


    Exact Audio Copy V1.3 from 2. September 2016

    EAC extraction logfile from 10. August 2018, 20:48

    Various Artists / NHKドラマ10「デイジー・ラック」 オリジナル・サウンドトラック

    Used drive  : MATSHITABD-MLT UJ240AS   Adapter: 1  ID: 1

    Read mode               : Secure
    Utilize accurate stream : Yes
    Defeat audio cache      : Yes
    Make use of C2 pointers : No

    Read offset correction                      : 103
    Overread into Lead-In and Lead-Out          : No
    Fill up missing offset samples with silence : Yes
    Delete leading and trailing silent blocks   : No
    Null samples used in CRC calculations       : Yes
    Used interface                              : Native Win32 interface for Win NT & 2000

    Used output format              : User Defined Encoder
    Selected bitrate                : 1024 kBit/s
    Quality                         : High
    Add ID3 tag                     : No
    Command line compressor         : C:\Program Files (x86)\Exact Audio Copy\Flac\flac.exe
    Additional command line options : -8 -V -T "ARTIST=%artist%" -T "TITLE=%title%" -T "ALBUM=%albumtitle%" -T "DATE=%year%" -T "TRACKNUMBER=%tracknr%" -T "GENRE=%genre%" -T "PERFORMER=%albuminterpret%" -T "COMPOSER=%composer%" %haslyrics%--tag-from-file=LYRICS="%lyricsfile%"%haslyrics% -T "ALBUMARTIST=%albumartist%" -T "DISCNUMBER=%cdnumber%" -T "TOTALDISCS=%totalcds%" -T "TOTALTRACKS=%numtracks%" -T "COMMENT=EAC V1.0 beta 3, Secure Mode, Test & Copy, AccurateRip, FLAC -8" %source% -o %dest%


    TOC of the extracted CD

         Track |   Start  |  Length  | Start sector | End sector
        ---------------------------------------------------------
            1  |  0:00.00 |  3:25.74 |         0    |    15448   
            2  |  3:25.74 |  2:47.22 |     15449    |    27995   
            3  |  6:13.21 |  2:55.16 |     27996    |    41136   
            4  |  9:08.37 |  2:26.70 |     41137    |    52156   
            5  | 11:35.32 |  3:23.74 |     52157    |    67455   
            6  | 14:59.31 |  1:46.03 |     67456    |    75408   
            7  | 16:45.34 |  2:51.15 |     75409    |    88248   
            8  | 19:36.49 |  1:42.49 |     88249    |    95947   
            9  | 21:19.23 |  3:01.60 |     95948    |   109582   
           10  | 24:21.08 |  2:36.57 |    109583    |   121339   
           11  | 26:57.65 |  1:55.39 |    121340    |   130003   
           12  | 28:53.29 |  2:23.11 |    130004    |   140739   
           13  | 31:16.40 |  2:05.02 |    140740    |   150116   
           14  | 33:21.42 |  2:10.68 |    150117    |   159934   
           15  | 35:32.35 |  2:11.26 |    159935    |   169785   
           16  | 37:43.61 |  2:14.06 |    169786    |   179841   
           17  | 39:57.67 |  3:02.08 |    179842    |   193499   
           18  | 43:00.00 |  2:24.55 |    193500    |   204354   
           19  | 45:24.55 |  2:06.74 |    204355    |   213878   
           20  | 47:31.54 |  2:05.65 |    213879    |   223318   
           21  | 49:37.44 |  3:03.13 |    223319    |   237056   
           22  | 52:40.57 |  3:04.18 |    237057    |   250874   
           23  | 55:45.00 |  3:26.30 |    250875    |   266354   
           24  | 59:11.30 |  3:26.06 |    266355    |   281810   
           25  | 62:37.36 |  3:00.74 |    281811    |   295384   
           26  | 65:38.35 |  2:17.18 |    295385    |   305677   
           27  | 67:55.53 |  3:58.55 |    305678    |   323582   
           28  | 71:54.33 |  2:52.43 |    323583    |   336525   
           29  | 74:47.01 |  2:53.59 |    336526    |   349559   


    Range status and errors

    Selected range

         Filename F:\Various Artists - NHKドラマ10「デイジー・ラック」 オリジナル・サウンドトラック.wav

         Peak level 98.0 %
         Extraction speed 2.8 X
         Range quality 100.0 %
         Test CRC B586A367
         Copy CRC B586A367
         Copy OK

    No errors occurred

    End of status report

    ---- CUETools DB Plugin V2.1.6

    [CTDB TOCID: 2_i2zFgU_5wneWaSCrdvElt8ulY-] disk not present in database
    Submit result: 2_i2zFgU_5wneWaSCrdvElt8ulY- has been uploaded


    ==== Log checksum 7C014F5AB96E25B8580EE25A7ADCB2B766EDD06B3B783446CF5E261563E8ED2A ====


    虽然剧没什么人气,但配乐真是太棒了,尤其是几首vocal曲,强烈推荐~

    Vocal&Chorus:tea(tr1/2/16/24)/市川愛(tr5/27/29)/彩夏子(tr3/7)/Evan Call(tr2/16/28)
    Lyrics:Evan Call(tr1/2/3/16/24/28/29)
    市川愛(tr27)

    ga035805

    LEVEL 5 美德
    UID:7972
    头衔:童貞魔法使
    精华:0
    主题:85
    帖子:2654
    威望:8209
    天使币:105091
    宣传度:787
    天然°:1111
    腹黑°:1070
    精灵:93
    旺财币:0
    阅读权限:90
    注册时间:2011-1-16
    来自:台灣
    状态: 不在线

  • TA的每日心情
    慵懒

    签到天数: 1268天[LV.Master]伴坛终老

  • ga035805 发表于 4 天前 |显示全部楼层
    這部的主題曲非常棒!
    感謝分享ost

    使用道具 举报

    您需要登录后才可以回帖 登录 | 注册

    加天使同城QQ群,有威望奖励~

    回顶部