背景音乐

天使动漫论坛 - 梦开始的地方

查看: 339|回复: 1

[JPOP] [度盘][自抓][090121]歌とギターとバイオリン / alüto (FLAC+LOG+BK+LYRICS)[850M] [复制链接]

wensmart
浮风

Friends★
UID:1500332
精华:0
主题:208
帖子:2215
威望:22987
天使币:6225
宣传度:2039
天然°:6656
腹黑°:7106
精灵:261
红玫瑰:0
白蔷薇:0
阅读权限:150
注册时间:2016-5-12
来自:Underground
状态: 不在线

  • TA的每日心情
    慵懒

    签到天数: 710天[LV.Master]伴坛终老

  • wensmart 发表于 6 天前 |显示全部楼层



    01. てのひら
    02. 未来空想
    03. 粉雪舞って
    04. 君の声
    05. 16trip
    06. 愛に手ふれて (album mix)
    07. 魔法のリズム
    08. 朧月
    09. 黒い羽
    10. 道 ~to you all (album version)
    11. 多摩川夜曲
    12. 歌うたいのバラッド
    13. 春の音

    Exact Audio Copy V1.3 from 2. September 2016

    EAC extraction logfile from 27. December 2018, 10:04

    alüto / 歌とギターとバイオリン

    Used drive  : ASUS    SDRW-08D6S-U   Adapter: 1  ID: 0

    Read mode               : Secure
    Utilize accurate stream : Yes
    Defeat audio cache      : Yes
    Make use of C2 pointers : No

    Read offset correction                      : 6
    Overread into Lead-In and Lead-Out          : No
    Fill up missing offset samples with silence : Yes
    Delete leading and trailing silent blocks   : No
    Null samples used in CRC calculations       : Yes
    Used interface                              : Native Win32 interface for Win NT & 2000
    Gap handling                                : Appended to previous track

    Used output format              : User Defined Encoder
    Selected bitrate                : 1024 kBit/s
    Quality                         : High
    Add ID3 tag                     : No
    Command line compressor         : G:\Exact Audio Copy\Flac\flac.exe
    Additional command line options : -8 -e -V -T "ARTIST=%artist%" -T "TITLE=%title%" -T "ALBUM=%albumtitle%" -T "DATE=%year%" -T "TRACKNUMBER=%tracknr%" -T "GENRE=%genre%" -T "COMMENT=%comment%" -T "BAND=%albuminterpret%" -T "ALBUMARTIST=%albuminterpret%" -T "COMPOSER=%composer%" %haslyrics%--tag-from-file=LYRICS="%lyricsfile%"%haslyrics% -T "DISCNUMBER=%cdnumber%" -T "TOTALDISCS=%totalcds%" -T "TOTALTRACKS=%numtracks%" %hascover%--picture="%coverfile%"%hascover% %source% -o %dest%


    TOC of the extracted CD

         Track |   Start  |  Length  | Start sector | End sector
        ---------------------------------------------------------
            1  |  0:00.00 |  3:36.30 |         0    |    16229   
            2  |  3:36.30 |  5:19.37 |     16230    |    40191   
            3  |  8:55.67 |  5:42.40 |     40192    |    65881   
            4  | 14:38.32 |  4:14.13 |     65882    |    84944   
            5  | 18:52.45 |  3:53.02 |     84945    |   102421   
            6  | 22:45.47 |  5:24.17 |    102422    |   126738   
            7  | 28:09.64 |  3:32.46 |    126739    |   142684   
            8  | 31:42.35 |  4:25.05 |    142685    |   162564   
            9  | 36:07.40 |  4:59.20 |    162565    |   185009   
           10  | 41:06.60 |  4:08.42 |    185010    |   203651   
           11  | 45:15.27 |  4:57.35 |    203652    |   225961   
           12  | 50:12.62 |  6:38.48 |    225962    |   255859   
           13  | 56:51.35 |  5:43.05 |    255860    |   281589   


    Track  1

         Filename H:\music\alüto - 歌とギターとバイオリン\01. てのひら - alüto.wav

         Pre-gap length  0:00:02.00

         Peak level 95.2 %
         Extraction speed 2.9 X
         Track quality 100.0 %
         Test CRC 1CD607B2
         Copy CRC 1CD607B2
         Accurately ripped (confidence 2)  [194A65F3]  (AR v2)
         Copy OK

    Track  2

         Filename H:\music\alüto - 歌とギターとバイオリン\02. 未来空想 - alüto.wav

         Pre-gap length  0:00:01.37

         Peak level 95.5 %
         Extraction speed 3.4 X
         Track quality 100.0 %
         Test CRC A173165C
         Copy CRC A173165C
         Accurately ripped (confidence 2)  [66E273A3]  (AR v2)
         Copy OK

    Track  3

         Filename H:\music\alüto - 歌とギターとバイオリン\03. 粉雪舞って - alüto.wav

         Pre-gap length  0:00:02.35

         Peak level 96.5 %
         Extraction speed 3.8 X
         Track quality 100.0 %
         Test CRC AD82634D
         Copy CRC AD82634D
         Accurately ripped (confidence 2)  [41444ED3]  (AR v2)
         Copy OK

    Track  4

         Filename H:\music\alüto - 歌とギターとバイオリン\04. 君の声 - alüto.wav

         Pre-gap length  0:00:00.73

         Peak level 94.0 %
         Extraction speed 4.0 X
         Track quality 100.0 %
         Test CRC 1BDC7832
         Copy CRC 1BDC7832
         Accurately ripped (confidence 2)  [25068E9A]  (AR v2)
         Copy OK

    Track  5

         Filename H:\music\alüto - 歌とギターとバイオリン\05. 16trip - alüto.wav

         Pre-gap length  0:00:02.36

         Peak level 95.8 %
         Extraction speed 3.5 X
         Track quality 99.9 %
         Test CRC 7CFB7C99
         Copy CRC 7CFB7C99
         Accurately ripped (confidence 2)  [5A45FD9C]  (AR v2)
         Copy OK

    Track  6

         Filename H:\music\alüto - 歌とギターとバイオリン\06. 愛に手ふれて (album mix) - alüto.wav

         Pre-gap length  0:00:01.35

         Peak level 96.4 %
         Extraction speed 4.6 X
         Track quality 100.0 %
         Test CRC D3EC2201
         Copy CRC D3EC2201
         Accurately ripped (confidence 2)  [92CA7632]  (AR v2)
         Copy OK

    Track  7

         Filename H:\music\alüto - 歌とギターとバイオリン\07. 魔法のリズム - alüto.wav

         Pre-gap length  0:00:02.36

         Peak level 95.6 %
         Extraction speed 4.6 X
         Track quality 100.0 %
         Test CRC DB0B2C85
         Copy CRC DB0B2C85
         Accurately ripped (confidence 2)  [F937441B]  (AR v2)
         Copy OK

    Track  8

         Filename H:\music\alüto - 歌とギターとバイオリン\08. 朧月 - alüto.wav

         Pre-gap length  0:00:00.73

         Peak level 95.7 %
         Extraction speed 4.9 X
         Track quality 100.0 %
         Test CRC A6420B17
         Copy CRC A6420B17
         Accurately ripped (confidence 2)  [D16DF084]  (AR v2)
         Copy OK

    Track  9

         Filename H:\music\alüto - 歌とギターとバイオリン\09. 黒い羽 - alüto.wav

         Pre-gap length  0:00:01.37

         Peak level 94.4 %
         Extraction speed 5.1 X
         Track quality 100.0 %
         Test CRC 07E8722F
         Copy CRC 07E8722F
         Accurately ripped (confidence 2)  [57C14F2D]  (AR v2)
         Copy OK

    Track 10

         Filename H:\music\alüto - 歌とギターとバイオリン\10. 道 ~to you all (album version) - alüto.wav

         Pre-gap length  0:00:00.37

         Peak level 96.4 %
         Extraction speed 5.2 X
         Track quality 100.0 %
         Test CRC AD4CB409
         Copy CRC AD4CB409
         Accurately ripped (confidence 2)  [17AADA3F]  (AR v2)
         Copy OK

    Track 11

         Filename H:\music\alüto - 歌とギターとバイオリン\11. 多摩川夜曲 - alüto.wav

         Pre-gap length  0:00:02.35

         Peak level 93.7 %
         Extraction speed 4.8 X
         Track quality 99.9 %
         Test CRC A0B6CA3D
         Copy CRC A0B6CA3D
         Accurately ripped (confidence 2)  [4668CB5C]  (AR v2)
         Copy OK

    Track 12

         Filename H:\music\alüto - 歌とギターとバイオリン\12. 歌うたいのバラッド - alüto.wav

         Pre-gap length  0:00:01.48

         Peak level 95.5 %
         Extraction speed 5.9 X
         Track quality 100.0 %
         Test CRC 887CE3F7
         Copy CRC 887CE3F7
         Accurately ripped (confidence 2)  [4C07BEBD]  (AR v2)
         Copy OK

    Track 13

         Filename H:\music\alüto - 歌とギターとバイオリン\13. 春の音 - alüto.wav

         Pre-gap length  0:00:02.36

         Peak level 96.6 %
         Extraction speed 6.0 X
         Track quality 100.0 %
         Test CRC 39F0B674
         Copy CRC 39F0B674
         Accurately ripped (confidence 2)  [42FC424D]  (AR v2)
         Copy OK


    All tracks accurately ripped

    No errors occurred

    End of status report

    ---- CUETools DB Plugin V2.1.6

    [CTDB TOCID: eKVuO_zDWuVNjFtp3rBv6EtPNH0-] found
    Submit result: eKVuO_zDWuVNjFtp3rBv6EtPNH0- has been confirmed
    Track | CTDB Status
      1   | (6/6) Accurately ripped
      2   | (6/6) Accurately ripped
      3   | (6/6) Accurately ripped
      4   | (6/6) Accurately ripped
      5   | (6/6) Accurately ripped
      6   | (6/6) Accurately ripped
      7   | (6/6) Accurately ripped
      8   | (6/6) Accurately ripped
      9   | (6/6) Accurately ripped
    10   | (6/6) Accurately ripped
    11   | (6/6) Accurately ripped
    12   | (6/6) Accurately ripped
    13   | (6/6) Accurately ripped


    ==== Log checksum 9CB9885B2DF74634E02CF62460BC57E3E29E26F5306170CAE61AF5D5D21A6E0E ====


    My blood type's 'Krylon', technicolor type 'A'
    revo
    神楽音域の领主

    LEVEL 3 POWER
    UID:33197
    头衔:全宇宙最强
    精华:0
    主题:0
    帖子:1102
    威望:644
    天使币:13
    宣传度:3
    天然°:8
    腹黑°:8
    精灵:0
    红玫瑰:0
    白蔷薇:0
    阅读权限:20
    注册时间:2011-4-7
    状态: 不在线

  • TA的每日心情
    难过

    签到天数: 355天[LV.Master]伴坛终老

  • revo 发表于 6 天前 |显示全部楼层
    升级
    配乐比歌好听系列

    使用道具 举报

    您需要登录后才可以回帖 登录 | 注册

    加天使同城QQ群,有威望奖励~

    Archiver|WAP| 天使动漫论坛   

    声明:本站所有内容资源均来自网络&网友分享,仅供学习试用。如侵犯您的权益请告知,将会第一时间删除。广告联系我的邮箱

    GMT+8, 2019-1-17 04:02 , Processed in 0.110006 second(s), 25 queries , Gzip On, Memcache On.

    Powered by Discuz! X2

    © 2001-2011 Comsenz Inc.

    回顶部